<?xml version="1.0" standalone="no"?>
<!DOCTYPE svg PUBLIC "-//W3C//DTD SVG 1.1//EN" "http://www.w3.org/Graphics/SVG/1.1/DTD/svg11.dtd">
<svg xmlns="http://www.w3.org/2000/svg">
<metadata>Generated by Fontastic.me</metadata>
<defs>
<font id="hotel-restaurant" horiz-adv-x="512">
<font-face font-family="hotel-restaurant" units-per-em="512" ascent="480" descent="-32"/>
<missing-glyph horiz-adv-x="512" />

<glyph unicode="&#97;" d="M11 428l490 0 0-22-490 0z m469-321l-410 0c-6 0-11 5-11 11l0 252c0 2 0 4 0 7 1 3 4 7 11 7l410 0c6 0 12-5 12-12l0-254c0-6-6-11-12-11z m-400 21l390 0 0 235-390 0z m-80 373l21 0 0-490-21 0z m130-57l21 0 0-95-21 0z m269 0l21 0 0-95-21 0z m-269-127l0-27 29 0 0 27 17 0 0-68-17 0 0 28-29 0 0-28-17 0 0 68c0 0 17 0 17 0z m132-33c0-23-15-37-37-37-22 0-36 15-36 36 0 20 15 36 37 36 24-1 36-16 36-35z m-55-1c0-14 7-23 19-23 12 0 18 10 18 24 0 13-6 22-18 22-13 0-19-11-19-23z m78 21l-20 0 0 13 59 0 0-13-21 0 0-55-17 0 0 55z m94-27l-29 0 0-16 32 0 0-12-49 0 0 68 48 0 0-13-30 0 0-14 29 0z m16 40l17 0 0-56 31 0 0-12-48 0z m-233-125l-24 2-10 19-10-19-23-2 18-14-5-21 21 12 20-12-5 21z m74 0l-25 2-9 19-10-19-23-2 18-14-6-21 21 12 21-12-5 21z m72 0l-23 2-10 19-9-19-25-2 19-14-5-21 20 12 22-12-7 21z m74 0l-24 2-10 19-9-19-24-2 19-14-5-21 20 12 21-12-6 21z m73 0l-24 2-10 19-8-19-25-2 18-14-4-21 20 12 22-12-7 21z"/>
<glyph unicode="&#98;" d="M403 211c-1 0-3 0-4 1l-72 29c-5 2-8 9-6 14l98 251c1 2 3 4 6 6 2 1 5 1 8 0l72-29c5-2 8-8 6-14l-98-250c-1-2-3-5-6-7-1-1-3-1-4-1z m-57 46l51-21 90 230-51 21-18-48z m-14-123c-1 0-3 0-5 1-4 3-6 6-6 10l-1 102c0 7 4 11 11 11 5 0 10-4 10-11l1-76 53 54c4 4 10 4 15 0 4-4 4-11 0-15l-71-72c-2-3-4-4-7-4z m49 124c-1 0-2 0-4 1-6 2-9 9-7 14l72 184c2 5 8 8 13 6 6-2 9-9 7-14l-72-183c-1-6-5-8-9-8z m-317-171l213 0 0-21-213 0z m0 63l213 0 0-21-213 0z m0 62l213 0 0-21-213 0z m0 62l213 0 0-21-213 0z m0 63l213 0 0-21-213 0z m346-338l-366 0c-25 1-44 21-44 45l0 315c0 25 19 44 44 44l339 0 0-21-339 0c-12 0-23-11-23-23l0-315c0-12 11-23 24-24l365 0c11 0 22 11 22 23l0 274 21 0 0-274c0-25-19-44-43-44z"/>
<glyph unicode="&#99;" d="M256 480c124 0 224-100 224-224 0-124-100-224-224-224-124 0-224 100-224 224 0 124 100 224 224 224m0 21c-135 0-245-110-245-245 0-135 110-245 245-245 135 0 245 110 245 245 0 135-110 245-245 245z m115-261l-130 6 64 177 19-6-53-151 100-5z m-327 27l48 0 0-22-48 0z m376 0l48 0 0-22-48 0z m-175 201l22 0 0-48-22 0z m0-376l22 0 0-48-22 0z"/>
<glyph unicode="&#100;" d="M460 346c11 0 20-10 20-22l0-271c0-11-10-21-20-21l-408 0c-10 0-20 10-20 21l0 271c0 12 10 22 20 22l408 0m0 21l-408 0c-22 0-41-19-41-43l0-271c0-23 19-42 41-42l408 0c22 0 41 19 41 42l0 271c0 24-19 43-41 43z m-91-303l-307 0 0 250 307 0z m-286 21l265 0 0 207-265 0z m315 11l61 0 0-21-61 0z m0 51l61 0 0-21-61 0z m0 52l61 0 0-21-61 0z m31 22c-24 0-42 18-42 41 0 24 19 42 42 42 22 0 41-18 41-42 0-23-18-41-41-41z m0 62c-11 0-20-10-20-21 0-10 9-20 20-20 10 0 20 10 20 20 0 11-10 21-20 21z m-233 65l-69 123 19 11 52-96 94 122 17-13z"/>
<glyph unicode="&#101;" d="M406 303l0-1c0-124-84-224-187-224-104 0-188 100-188 224l0 1 375 0m22 21l-416 0c-1-7-1-15-1-22 0-136 94-245 209-245 115 0 209 109 209 245-1 7-1 15-1 22z m-306-283l181 0 0-22-181 0z m170 29l-5 21c70 18 190 60 204 140 5 32-9 47-24 51-16 3-36-8-44-35l-20 6c11 40 43 55 70 50 25-5 46-31 39-75-17-90-145-137-220-158z m-110 39c-100 57-109 154-109 159l21 2c0-1 8-91 99-142z m41 225l-10 19c5 2 26 15 18 32-2 3-7 8-12 12-6 4-12 8-16 15-10 10-14 26-11 40 1 8 7 14 12 19 2 4 6 8 7 10l22 2c1-10-7-18-13-25-2-4-7-8-7-10-3-11 4-20 7-23 3-5 7-8 11-11 8-5 15-12 20-20 11-27-8-49-28-60z"/>
<glyph unicode="&#102;" d="M183 162l188 0 0-21-188 0z m329-21l-53 0 0 21 32 0 0 65-73 121-355 0-2-82 0-104 36 0 0-21-58 0 0 125 3 103 389 0 81-135z m-323 84l-105 0 0 108 105 0z m-83 21l61 0 0 65-61 0z m211-21l-105 0 0 108 105 0z m-83 21l61 0 0 65-61 0z m227-21l-123 0 0 108 62 0z m-102 21l66 0-38 65-28 0z m-218-156c-32 0-58 25-58 57 0 32 26 58 58 58 32 0 57-26 57-58 0-32-25-57-57-57z m0 93c-20 0-36-16-36-36 0-20 16-36 36-36 20 0 36 16 36 36 0 20-16 36-36 36z m274-93c-32 0-58 25-58 57 0 32 26 58 58 58 32 0 58-26 58-58 0-32-26-57-58-57z m0 93c-20 0-36-16-36-36 0-20 16-36 36-36 20 0 36 16 36 36 0 20-16 36-36 36z m-49 166l-273 0 0 73 273 0z m-252 21l231 0 0 31-231 0z m-53-187l-61 0 0 112 61 0z m-40 22l18 0 0 69-18 0z"/>
<glyph unicode="&#103;" d="M445 30l-378 0c-6 0-10 4-10 11l0 170c0 3 1 6 3 8l187 191c3 2 5 3 8 3 3 0 5-1 7-3l190-191c2-2 3-5 3-8l0-170c0-7-4-11-10-11z m-367 21l356 0 0 156-179 180-177-180z m416 168l-238 238-238-238-15 15 246 245c4 4 10 4 14 0l246-245z m-245-143c-60 0-109 49-109 109 0 59 49 108 109 108 59 0 108-49 108-108 0-28-10-55-31-76-21-22-49-33-77-33z m0 196c-48 0-88-39-88-87 0-48 40-88 88-88 23 0 45 10 62 27 16 17 25 38 25 61 0 48-39 87-87 87z m96-102l160-40-5-21-160 40z m-84-39c-18 0-32 6-43 16-21 19-22 47-22 48l22 0c0 0 1-20 13-33 8-7 20-11 34-9l1-22c-1 0-4 0-5 0z"/>
<glyph unicode="&#104;" d="M460 219c9 0 16-1 20-4-2-25-26-92-50-152l-348 0c-12 12-24 47-36 87 32-17 72-25 117-25 63 0 126 18 177 49 60 37 97 45 120 45m0 21c-27 0-70-10-130-48-51-31-111-46-167-46-66 0-125 21-152 63 0 0 26-143 64-166l369 0c0 0 66 151 56 186 0 0-11 11-40 11z m-361-219l55 0 0-21-55 0z m246 0l53 0 0-21-53 0z m110 219l-21 0 0 187c-12 15-72 86-124 57l-10 18c73 42 150-61 153-66 1-2 2-4 2-6z m-142 195c-21 0-38 16-38 35 0 20 17 36 38 36 20 0 37-16 37-36 0-19-17-35-37-35z m0 49c-9 0-16-6-16-14 0-7 7-13 16-13 8 0 16 6 16 13 0 8-8 14-16 14z m-137-272l-19 10 15 29 19-10z m29 58l-19 9 15 29 19-9z m30 56l-20 10 15 29 20-10z m30 57l-20 11 5 8 19-9z m-7-194l-20 5 3 11 20-6z m11 41l-20 6 7 31 20-6z m15 62l-21 6 8 31 20-6z m15 62l-21 5 8 31 20-5z m35-129l-21 1 2 32 21-1z m4 64l-21 1 2 32 21-1z m3 63l-21 1 2 32 21-1z"/>
<glyph unicode="&#105;" d="M50 0c-14 0-25 5-35 15-20 20-19 53 1 74l199 199c-29 60-18 130 30 178 29 30 69 46 110 46 42 0 81-16 111-46 30-30 46-68 46-110 0-41-16-81-46-111-30-30-68-46-110-46-19 0-39 5-57 11l7-30c1-3 0-7-3-9-3-2-6-4-10-4l-34 9 4-38c0-4-1-7-3-9-2-2-5-3-8-3l-44 5 7-52c0-3-1-6-3-9-2-2-5-3-8-3l-50 7 0-42c0-6-5-11-11-11l-49 0-5-5c-11-11-25-16-39-16z m305 491c-36 0-70-14-95-40-42-42-52-108-22-160 2-4 1-9-2-13l-205-204c-5-6-10-14-10-23 0-8 4-16 9-21 12-12 31-11 44 1l8 8c2 3 4 4 8 4l42 0 0 42c0 4 1 7 3 8 3 2 6 3 9 2l48-5-6 47c0 3 1 6 3 8l4 4c2 2 5 4 9 4l38-5-4 39c0 3 1 6 3 8l1 1c2 2 6 3 10 3l31-7-8 32c-1 3 0 7 3 10l2 2c4 3 9 4 13 2 20-11 43-17 65-17 37 0 70 14 95 39 26 26 40 60 40 95 0 35-14 71-40 95-25 25-60 41-96 41z m0-186c-14 0-26 5-35 15-10 10-15 23-15 37 0 14 5 26 15 36 10 9 22 14 36 14 14 0 27-5 35-14 10-10 15-24 15-38 0-14-5-25-15-35-9-10-22-15-36-15z m1 80c-7 0-15-3-21-8-5-6-9-12-9-21 0-8 4-16 9-21 11-12 30-12 42 0 5 5 8 12 8 20 0 9-3 16-8 22-6 5-13 8-21 8z"/>
<glyph unicode="&#106;" d="M172 47c-46 0-83 13-105 36-2 2-3 6-2 8 0 3 1 5 4 7l85 72c4 4 10 3 15-1 13-16 35-25 59-25 34 0 74 17 110 48 40 33 63 71 66 108 2 21-4 39-17 54-2 2-3 5-3 9 0 3 1 5 4 7l85 71c4 3 10 3 14-2 19-21 28-53 25-91-5-74-50-156-117-214-65-55-149-87-223-87z m-80 44c18-14 46-22 80-22 70 0 148 31 208 82 75 64 105 146 110 199 2 28-4 51-13 68l-68-56c11-17 17-39 16-62-4-42-30-86-74-122-41-34-84-53-124-53-26 0-50 8-68 24z m271 299c-4 0-6 1-8 4l-25 28c-3 3-4 6-4 8 0 3 1 5 4 7l83 72c3 2 5 3 8 3 4 0 6-1 8-3l25-30c3-2 4-5 3-8 0-3-2-5-5-7l-83-70c-1-3-4-4-6-4z m-11 39l12-13 67 57-12 13z m-308-310c-3 0-7 2-8 4l-25 28c-2 3-4 6-4 8 0 2 2 5 5 7l84 73c4 4 11 3 15-1l26-30c2-2 3-5 2-7 0-4-2-6-5-8l-84-70c-1-2-4-4-6-4z m-11 39l12-13 68 57-12 13z m12-155c-10 11-19 22-29 34-11 14-16 31-16 47 0 14 4 26 9 39l1 3c2 4 3 7 4 12 1 4 3 7 4 11l19-8c-1-3-3-8-4-11-1-5-2-8-4-13l-1-2c-5-12-8-21-8-31 0-11 5-23 12-34 9-12 17-21 27-32z"/>
<glyph unicode="&#107;" d="M55 64c-14 0-29 6-39 19-11 12-16 28-16 44l0 258c0 35 26 63 58 63l395 0c32 0 58-28 58-63l0-254c1-1 1-3 1-4 0-35-26-63-58-63z m3 363c-20 0-37-20-37-42l0-258c0-12 5-22 11-30 6-7 15-12 23-12l398 0c18 0 34 17 37 38-1 1-1 2-1 4l0 258c0 22-18 42-37 42z m-38-160l472 0 0-22-472 0z m0-86l472 0 0-21-472 0z m224-47l76 0 0-21-76 0z m112 0l76 0 0-21-76 0z m-131 260l220 0 0-22-220 0z m0-58l220 0 0-21-220 0z"/>
<glyph unicode="&#108;" d="M355 114l-241 241 3 7c13 27 33 55 61 83 41 39 92 63 144 67 53 3 104-15 139-51 54-55 67-140 31-216l-19 9c32 68 21 143-27 192-31 32-75 48-122 45-48-4-94-25-130-61-23-24-41-47-53-71l220-219c13 7 27 17 42 29l14-16c-18-15-36-27-53-35z m-65-13c-45 0-88 21-129 61-62 61-77 130-44 200l7 13 251-250-13-7c-24-11-48-17-72-17z m-160 237c-20-56-5-111 46-161 36-36 75-54 114-54 16 0 32 3 49 9z m-68-342l-66 66 148 148 66-66z m-36 66l36-36 117 117-36 36z m411 77c-41 0-74 33-74 74 0 42 33 75 74 75 42 0 75-33 75-75 0-41-33-74-75-74z m0 128c-30 0-53-24-53-54 0-30 23-53 53-53 30 0 54 23 54 53 0 30-24 54-54 54z"/>
<glyph unicode="&#109;" d="M370 0l-229 0c-32 0-60 28-60 60l0 392c0 32 28 60 60 60l229 0c32 0 60-28 60-60l0-392c0-32-28-60-60-60z m-229 491c-22 0-39-17-39-39l0-392c0-22 17-39 39-39l229 0c21 0 39 17 39 39l0 392c0 22-18 39-39 39z m230-192l-230 0c-7 0-11 4-11 10l0 137c0 6 4 11 11 11l230 0c7 0 11-5 11-11l0-137c0-6-4-10-11-10z m-220 21l210 0 0 115-210 0z m-7-58l55 0 0-21-55 0z m84 0l56 0 0-21-56 0z m85 0l55 0 0-21-55 0z m-169-82l55 0 0-21-55 0z m84 0l56 0 0-21-56 0z m85 0l55 0 0-21-55 0z m-169-83l55 0 0-21-55 0z m84 0l56 0 0-21-56 0z m85 0l55 0 0-21-55 0z m-70 305l-15-7-3 14 20 9 15 0 0-77-17 0z m43-61l0 11 9 9c18 14 25 23 25 32 0 6-4 10-13 10-6 0-13-3-16-6l-5 13c5 4 15 7 24 7 17 0 27-10 27-23 0-13-10-24-20-33l-8-6 29 0 0-14z"/>
<glyph unicode="&#110;" d="M450 190l-387 0c-6 0-11 4-11 11l0 208c0 6 5 10 11 10l387 0c7 0 11-4 11-10l0-208c0-7-4-11-11-11z m-376 21l365 0 0 187-365 0z m182-113c-115 0-219 16-252 39-2 2-4 5-4 8l0 307c0 7 4 11 11 11l490 0c7 0 11-4 11-11l0-307c0-3-2-6-4-8-32-24-134-39-252-39z m-235 53c30-16 119-32 235-32 118 0 206 15 235 32l0 291-470 0z m136 19l35 0 0-22-35 0z m54 0l35 0 0-22-35 0z m55 0l35 0 0-22-35 0z m54 0l35 0 0-22-35 0z m-228-100l328 0 0-21-328 0z"/>
<glyph unicode="&#111;" d="M416 297c-38 0-70 32-70 70 0 38 32 70 70 70 38 0 70-32 70-70 0-38-32-70-70-70z m0 119c-27 0-49-22-49-49 0-27 22-49 49-49 27 0 49 22 49 49 0 27-22 49-49 49z m-262-206c-29 0-43 21-46 32l-2 8 113 83c-32 16-71 19-100 19-6 0-17 0-27-1-19-3-37 11-40 30-3 19 11 37 30 39 10 2 172 21 239-88 0-1 1-2 3-5 59-88 57-100 46-107l-1-1c-2-1-4-1-6-1-8 0-15 4-32 13-21 12-49 29-73 31-1 0-2 0-4 0-19 0-39-16-56-28-16-12-29-23-44-24z m-22 32c3-5 10-11 22-11 7 0 20 11 32 21 21 17 45 36 74 33 28-2 59-20 81-34 2-1 6-4 8-5-6 12-18 33-43 71-2 3-3 5-3 5-43 69-132 79-182 79-22 0-35-2-36-2-8-1-14-8-12-16 1-9 7-14 16-13l2 0c11 3 22 3 30 3 35 0 86-5 124-31l13-8z m258-89c-39 0-57 17-73 33-14 13-26 24-51 24-27 0-40-13-55-27-16-14-33-30-65-30-30 0-48 14-65 28-18 15-35 29-70 29l0 21c42 0 64-18 84-34 16-12 29-23 51-23 24 0 35 12 50 25 16 15 35 32 70 32 34 0 51-16 66-30 15-15 29-27 58-27 30 0 39 11 49 25 12 15 25 32 62 32l0-21c-26 0-34-11-44-23-12-16-27-34-67-34z m0-78c-39 0-57 17-73 33-14 14-26 24-51 24-27 0-40-13-55-26-16-15-33-31-65-31-30 0-48 15-65 28-18 15-35 29-70 29l0 22c42 0 64-19 84-35 16-12 29-23 51-23 24 0 35 12 50 26 16 15 35 32 70 32 34 0 51-16 66-31 15-15 29-27 58-27 30 0 39 11 49 26 12 15 25 32 62 32l0-22c-26 0-34-10-44-23-12-16-27-34-67-34z"/>
<glyph unicode="&#112;" d="M463 135l-447 0 52 73c7 23 64 213 306 213 24 0 48-2 74-5l6-1 3-5c6-16 64-155 54-208-3-21-37-57-45-63z m-404 22l395 0c15 16 35 39 36 49 7 37-32 145-51 190-22 3-43 4-65 4-240 0-284-196-285-198l0-3z m-48-45l448 0 0-21-448 0z m441 114l-306 0 10 16c70 117 164 135 214 135 26 0 42-5 43-5l4-1 2-4c24-41 62-111 49-132-3-6-9-9-16-9z m0 21l0-10z m-267 0l264 0c0 14-20 59-47 105-5 1-17 3-33 3-42 0-122-15-184-108z m91 37l114 0 0-22-114 0z"/>
<glyph unicode="&#113;" d="M333 0l-145 0c-27 0-46 6-57 19-9 11-9 23-9 27l0 173c0 64 63 87 97 91 139 15 150 84 150 84 1 5 5 9 12 9 5 0 9-5 9-10l0-324c0-53-37-69-57-69z m-190 44c0 0 0-6 4-11 4-5 16-12 41-12l145 0c4 0 36 4 36 48l0 281c-21-25-64-52-148-61-3 0-78-10-78-70l0-174c0 0 0-1 0-1z m247 349l-21 0c0 54-44 98-98 98-54 0-99-44-99-98l-22 0c0 66 55 119 121 119 66 0 119-53 119-119z m-189-256c-3-2-8-3-15-3-19 0-29 11-29 28 0 18 13 30 30 30 6 0 11-1 14-2l-3-9c-2 1-6 2-10 2-12 0-19-7-19-20 0-13 7-20 19-20 4 0 8 1 10 2z m8 56l11 0 0-59-11 0z m59-37c0-15-11-22-21-22-11 0-20 8-20 21 0 12 9 21 22 21 11 0 19-9 19-20z m-30-1c0-8 4-14 9-14 6 0 10 5 10 14 0 6-3 14-10 14-6 0-9-8-9-14z m38-11c2-1 7-3 11-3 4 0 6 2 6 4 0 3-2 4-6 6-8 4-12 8-11 12 0 8 7 13 15 13 4 0 9-1 11-2l-3-8c-2 1-6 3-9 3-3 0-5-3-5-5 0-2 2-4 7-5 8-2 11-6 11-13 0-7-5-13-16-13-5 0-10 1-13 4z m43 7c0-7 6-10 13-10 4 0 8 1 10 2l1-8c-3-1-8-2-13-2-13 0-22 9-22 21 0 10 7 21 19 21 13 0 18-11 18-19 0-2 0-3 0-5z m17 8c0 3-1 10-9 10-6 0-8-6-9-10z"/>
<glyph unicode="&#114;" d="M491 501l21 0 0-490-21 0z m-480-373l490 0 0-21-490 0z m-11 269l21 0 0-386-21 0z m420-252c-29 0-52 24-52 52 0 29 23 53 52 53 29 0 53-24 53-53 0-28-24-52-53-52z m0 83c-17 0-31-14-31-31 0-17 14-31 31-31 17 0 31 14 31 31 0 17-14 31-31 31z m-67-84l-316 0 0 11c0 90 173 103 277 103 18 0 29 0 29 0l11 0 0-114z m-293 21l272 0 0 72c-5 0-11 0-18 0-117 0-239-18-254-72z m-49 164l490 0 0-22-490 0z m409 16c-29 0-52 23-52 52 0 29 23 52 52 52 29 0 53-23 53-52 0-29-24-52-53-52z m0 83c-17 0-31-14-31-31 0-17 14-31 31-31 17 0 31 14 31 31 0 17-14 31-31 31z m-67-85l-316 0 0 11c0 91 173 104 277 104 18 0 29 0 29 0l11 0 0-115z m-293 22l272 0 0 71c-5 0-11 0-18 0-36 0-102-2-158-15-58-11-89-31-96-56z"/>
<glyph unicode="&#115;" d="M491 416l21 0 0-320-21 0z m-480-203l479 0 0-21-479 0z m-11 36l21 0 0-153-21 0z m420-10c-29 0-52 23-52 52 0 29 23 52 52 52 29 0 53-23 53-52 0-29-24-52-53-52z m0 83c-17 0-31-14-31-31 0-17 14-31 31-31 17 0 31 14 31 31 0 17-14 31-31 31z m-67-84l-316 0 0 11c0 90 173 103 277 103 18 0 29 0 29 0l11 0 0-114z m-293 21l272 0 0 72c-5 0-11 0-18 0-36 0-102-2-158-15-58-12-89-31-96-57z"/>
<glyph unicode="&#116;" d="M327 113l-142 0c-31 0-56 21-56 48l0 190c0 27 25 48 56 48l142 0c31 0 56-21 56-48l0-190c0-27-25-48-56-48z m-142 265c-19 0-35-12-35-27l0-190c0-15 16-27 35-27l142 0c19 0 35 12 35 27l0 190c0 15-16 27-35 27z m120 35l-98 0c-4 0-8 2-10 5-2 3-2 8 0 11l49 78c3 3 7 5 10 5 3 0 7-2 9-5l49-78c2-3 2-8 0-11-1-3-5-5-9-5z m-79 21l60 0-30 47z m30-434c-3 0-7 2-9 5l-49 78c-2 3-2 8 0 11 3 3 6 5 10 5l98 0c4 0 8-2 10-5 2-3 2-8 0-11l-49-78c-4-3-8-5-11-5z m-30 78l30-47 30 47z m30 134c-6 0-11 5-11 11l0 84c0 7 5 11 11 11 6 0 11-4 11-11l0-84c0-6-5-11-11-11z m-37-69c-1 0-4 0-5 1-5 2-7 9-5 14l36 76c2 5 9 7 14 5 6-2 8-9 6-14l-37-76c-2-4-5-6-9-6z m74 0c-4 0-7 2-9 6l-37 76c-2 5 0 12 6 14 5 2 12 0 14-5l36-76c2-5 0-12-5-14-1-1-4-1-5-1z m-95 103c-3 0-6 1-8 5-3 4-3 11 2 15l54 41c5 3 12 3 15-2 4-4 4-12-2-15l-54-41c-2-2-4-3-7-3z m116 0c-3 0-5 1-7 3l-54 41c-4 3-6 11-2 15 3 4 10 5 15 2l54-41c4-4 5-11 2-15-2-4-5-5-8-5z m-58 65c-16 0-29 13-29 29 0 16 13 29 29 29 16 0 29-13 29-29 0-16-13-29-29-29z m0 37c-4 0-7-3-7-8 0-4 3-7 7-7 4 0 7 3 7 7 0 5-3 8-7 8z"/>
<glyph unicode="&#117;" d="M272 101c-85 0-155 70-155 155 0 85 70 155 155 155 85 0 155-70 155-155 0-85-70-155-155-155z m0 288c-74 0-133-59-133-133 0-74 59-133 133-133 74 0 133 59 133 133 0 74-59 133-133 133z m0-233c-55 0-100 45-100 100 0 55 45 100 100 100 55 0 100-45 100-100 0-55-45-100-100-100z m0 179c-44 0-79-35-79-79 0-44 35-79 79-79 44 0 79 35 79 79 0 44-35 79-79 79z m212-249c-9 0-18 4-26 11-4 2-5 6-5 10l12 76c-12 4-27 10-28 24-2 10 14 173 44 208 8 10 18 12 27 6 3-2 5-5 5-9l0-307c0-3-1-6-3-8 0 0-11-11-26-11z m-8 25c6-3 13-2 16 0l0 283c-18-38-34-166-33-185 2-2 11-6 20-7 5-1 10-7 8-12z m-414 168c-34 0-62 34-62 73 0 39 28 73 62 73 34 0 62-34 62-73 0-39-28-73-62-73z m0 124c-23 0-41-23-41-51 0-28 18-51 41-51 22 0 40 23 40 51 0 28-18 51-40 51z m-11-113l22 0 0-192-22 0z"/>
<glyph unicode="&#118;" d="M194 0l-54 0c-3 0-7 1-9 4-2 3-2 7-2 10l52 173-79 0-32-59c-2-3-5-5-9-5l-50 0c-4 0-7 2-9 4-2 3-2 6-2 10l38 119-38 119c-1 4 0 7 1 10 1 3 5 4 9 4l51 0c4 0 7-2 9-5l32-59 79 0-51 173c-1 3 0 7 2 10 2 3 6 4 9 4l54 0c3 0 7-2 9-4l117-170c107-11 184-70 187-73 2-3 4-6 4-9 0-3-1-6-4-9-3-2-79-61-187-73l-118-170c-2-2-6-4-9-4z m-40 21l34 0 118 170c2 2 4 4 8 4 81 8 144 44 169 61-25 17-88 53-168 61-4 0-7 2-8 4l-117 170-34 0 51-173c1-3 0-7-2-10-2-3-6-4-9-4l-99 0c-4 0-7 2-10 5l-32 59-29 0 34-109c1-2 1-4 0-6l-34-109 28 0 32 59c3 3 6 5 10 5l99 0c3 0 7-1 9-4 2-3 2-7 2-10z"/>
<glyph unicode="&#119;" d="M114 316l-118 139 72 61 119-139z m-88 137l90-107 41 33-91 107z m357-457l-260 309 72 61 260-309z m-230 307l232-277 41 33-233 277z m296-141l-21 2c2 16-5 24-14 34-5 7-12 14-16 24-9 16-9 40-7 56 2 7 4 14 6 21 8 32 18 65-31 94l11 18c61-37 49-86 40-118-2-6-3-12-4-18-2-16 0-34 4-44 3-7 9-12 14-19 10-11 20-24 18-50z m63 9l-21 2c2 16-5 23-14 34-6 6-12 14-16 23-8 16-9 41-7 57 1 6 4 14 6 20 8 32 18 65-31 94l10 18c62-36 50-85 41-117-2-7-3-13-4-18-2-16 0-34 4-44 3-7 9-13 14-19 9-12 20-25 18-50z"/>
<glyph unicode="&#120;" d="M405 0l-298 0 0 171c-60 5-107 58-107 124 0 69 51 124 113 124l2 0c10 0 18-1 27-3 12 55 57 96 112 96 54 0 101-41 113-96 10 3 20 4 30 4 64 0 115-55 115-125 0-66-47-119-107-124z m-277 21l256 0 0 171 13 0c52 0 94 47 94 103 0 57-42 104-94 104-12 0-23-2-34-8l-14-6-2 15c-5 51-45 91-93 91-47 0-88-39-93-90l-1-14-13 6c-9 4-20 5-31 5l-2 0c-51 0-93-46-93-103 0-56 42-103 94-103l13 0z m-52 260l-22 0c0 28 16 82 77 83l0-22c-54-1-55-59-55-61z m85-118l21 0 0-104-21 0z"/>
<glyph unicode="&#121;" d="M500 129l-486 0-2 9c-1 5-1 10-1 15 0 135 110 245 245 245 135 0 245-110 245-245 0-3 0-6-1-8 0-2 0-3 0-5z m-468 21l448 0c0 1 0 1 0 3 0 123-100 224-224 224-124 0-224-101-224-224 0-2 0-2 0-3z m480-137l-512 0 0 88 512 0z m-491 21l470 0 0 46-470 0z m235 371c-26 0-47 22-47 47 0 26 21 47 47 47 26 0 47-21 47-47 0-25-21-47-47-47z m0 73c-14 0-26-12-26-26 0-14 12-25 26-25 14 0 26 11 26 25 0 14-12 26-26 26z m-147-258l-19 8c2 5 43 97 134 114l4-21c-80-15-118-100-119-101z"/>
<glyph unicode="&#122;" d="M103 281l-62 0-2 9c0 2-5 49 72 69 80 20 119 41 135 72l20-10c-24-46-89-67-150-82-38-9-50-26-54-36l40 0 0-22z m368 0l-62 0 0 21 41 0c-4 11-16 27-54 36-61 15-126 36-149 82l20 10c15-30 55-51 134-72 78-20 73-67 73-69z m-204 132l-22 0 0 48 11 0c7 0 15 7 15 15 0 7-8 15-15 15-7 0-15-8-15-15l-21 0c0 19 17 36 36 36 19 0 36-17 36-36 0-16-10-30-25-34z m152-413l-326 0 0 321 326 0z m-305 21l284 0 0 279-284 0z"/>
<glyph unicode="&#65;" d="M193 0c-5 0-10 3-11 9l-48 254c-1 4 0 7 3 9 2 2 4 4 7 4l356 41c5 0 8-1 10-4 2-4 3-7 1-11l-97-259c-1-4-4-7-9-7l-210-36c-1 0-1 0-2 0z m-35 256l44-234 195 33 88 237z m35-256c-2 0-4 1-6 2l-138 97c-2 1-4 4-4 7l-45 228c-1 4 1 8 4 11 3 2 8 3 12 1l134-71c4-1 6-4 6-7l48-255c1-4-1-9-5-11-2-1-4-2-6-2z m-128 114l113-79-43 224-109 57z m427 187l-38 68-114 40-286-28-34-50-17 11 38 55c2 2 4 4 7 4l293 29c1 0 4 0 5 0l120-42c2-1 4-2 5-5l40-72z m-339 24c-3 0-4 0-6 1l-104 55 10 19 102-53 306 41 3-21-309-42c-1 0-2 0-2 0z m-12 12l22-2-8-70-21 2z m192-99l-18 11 104 187-154 54-79-93-16 14 83 98c3 3 7 4 12 3l172-61c4-1 6-3 7-6 1-3 1-7-1-9z"/>
<glyph unicode="&#66;" d="M313 343c-15 0-30 9-38 22-3 4-5 10-5 16l0 6 66 38 5-7c4-3 6-6 8-11 6-10 7-22 4-33-3-10-11-20-21-25-6-3-13-6-19-6z m-20 32c5-6 11-10 20-10 3 0 7 1 9 2 5 3 10 7 11 13 1 5 1 10-2 16z m-18-9l-26 50c-2 0-3 0-4 0-19 0-32 10-35 26-2 13 0 24 7 33 7 8 19 12 34 12 3 0 5 0 8 0 3 8 8 16 14 21 8 2 14 4 21 4 17 0 30-12 36-23 7-16 1-32-4-41l21-43z m-15 73l24-44 35 19-16 34 3 5c3 5 9 17 4 26-2 6-8 12-16 12-3 0-6-1-10-4-1-1-6-7-7-14l-2-11-10 3c-3 1-7 1-13 1-6 0-14-1-18-5-3-3-4-9-3-15 0-2 2-9 14-9 5 0 8 1 8 1z m108-440l-1 0c-17 0-30 13-32 30l-5 98 18 67c0 13-3 32-16 57l-13-11-69-3c-10 0-19 3-24 9-3 4-6 9-7 13-2 3-2 8-2 9 0 18 13 33 30 33l48 2c10 13 36 45 63 45 22 0 29-9 31-11 48-52 48-129 47-151l0-4-1-3-7-12-32-53 5-82c-2-17-15-32-33-33z m-17 126l5-94c0-4 3-11 11-11l1-10-1 10c6 1 11 6 11 12l-6 87 42 70c1 22-1 88-43 134 0 0-4 3-15 3-19 0-41-29-49-39l-3-4-59-2c-5 0-9-6-9-11l10-11c0 0 1 0 1 0l62 3 27 22 6-11c21-34 25-62 25-79l0-3z m-179 147c-9 0-17 2-24 4-14 5-21 3-27-4l-16 14c17 20 41 13 50 11 14-5 26-8 40 10l17-13c-14-17-27-22-40-22z m-27 59c0-4-3-7-6-7-4 0-7 3-7 7 0 3 3 6 7 6 3 0 6-3 6-6z m9-20c0-2-2-4-5-4-2 0-4 2-4 4 0 3 2 5 4 5 3 0 5-2 5-5z m32 4c0-3-2-5-5-5-2 0-4 2-4 5 0 2 2 4 4 4 3 0 5-2 5-4z m9 21c0-3-2-5-5-5-3 0-5 2-5 5 0 3 2 5 5 5 3 0 5-2 5-5z m-18 14c0-4-3-7-6-7-4 0-7 3-7 7 0 3 3 6 7 6 3 0 6-3 6-6z m-31 11c0-4-3-7-6-7-4 0-7 3-7 7 0 3 3 6 7 6 3 0 6-3 6-6z m145-355l-62 0 0 87-90 0 0-87-62 0 0 179 214 0z m-40 22l19 0 0 135-172 0 0-135 19 0 0 86 134 0z m-93 201c-20 0-44 6-66 21l13 17c54-37 115 0 115 0l10-18c-2-2-33-20-72-20z"/>
<glyph unicode="&#67;" d="M422 35l-332 0c-49 0-90 38-90 84l0 309c0 47 41 84 90 84l332 0c49 0 90-37 90-84l0-309c0-46-41-84-90-84z m-332 456c-38 0-69-28-69-63l0-309c0-35 31-62 69-62l332 0c38 0 69 27 69 62l0 309c0 35-31 63-69 63z m331-381l-331 0c-7 0-11 4-11 11l0 307c0 6 4 10 11 10l331 0c7 0 11-4 11-10l0-307c0-7-4-11-11-11z m-321 21l311 0 0 286-311 0z m69 93c-25 0-45 20-45 46 0 25 20 46 45 46 24 0 44-21 44-46 0-26-20-46-44-46z m0 70c-13 0-24-10-24-24 0-14 11-25 24-25 12 0 23 11 23 25 0 14-11 24-23 24z m129 53l81 0 0-22-81 0z m0-62l81 0 0-22-81 0z m0-62l81 0 0-21-81 0z m-208-202l66 0 0-21-66 0z m248 0l65 0 0-21-65 0z"/>
<glyph unicode="&#68;" d="M197 0l-165 0-32 449 230 0z m-146 21l126 0 30 407-185 0z m319 193c-66 0-119 70-119 155l0 11 239 0 0-11c0-85-54-155-120-155z m-98 144c4-68 46-122 98-122 52 0 94 54 98 122z m89-133l21 0 0-214-21 0z m-40-204l100 0 0-21-100 0z m-302 311l191 0 0-22-191 0z m249 0l205 0 0-22-205 0z m87-16l-18 10 102 181c2 3 5 5 8 5 3 0 6-1 10-3l53-63-16-14-44 51z"/>
<glyph unicode="&#69;" d="M0 476l512 0 0-22-512 0z m497-481l-483 0 0 418 483 0z m-462 21l441 0 0 375-441 0z m46 491l21 0 0-86-21 0z m323 0l22 0 0-86-22 0z m-323-135l21 0 0-37-21 0z m323 0l22 0 0-37-22 0z m-322-155c5 1 13 1 20 1 11 0 19-3 23-6 4-3 6-8 6-15 0-9-6-16-13-18 6-2 9-7 11-14 2-9 4-17 5-20l-13 0c-2 2-4 9-6 17-2 10-5 13-13 13l-7 0 0-30-13 0z m13-34l7 0c9 0 15 5 15 12 0 8-5 12-15 12-4 0-7 0-8-1l0-23z m115-2c0-24-15-38-35-38-20 0-34 16-34 37 0 23 14 39 35 39 21 0 34-17 34-38z m-55-1c0-15 7-26 20-26 13 0 20 11 20 26 0 14-6 27-20 27-13 1-20-12-20-27z m132 1c0-24-15-38-35-38-21 0-34 16-34 37 0 23 13 39 35 39 21 0 34-17 34-38z m-56-1c0-15 8-26 21-26 13 0 20 11 20 26 0 14-6 27-20 27-13 1-21-12-21-27z m130-6c0 9-2 20-2 31-2-9-5-19-8-28l-11-32-10 0-10 31c-3 10-5 19-7 29 0-10-2-22-2-31l-2-30-12 0 5 73 18 0 10-29c2-9 5-17 6-26 2 8 4 17 7 26l11 29 17 0 4-73-12 0z m27-15c5-2 11-4 18-4 9 0 14 4 14 9 0 6-3 9-13 12-11 4-20 11-20 21 0 12 10 22 26 22 7 0 14-2 18-4l-3-10c-2 1-8 3-15 3-9 0-12-4-12-9 0-5 4-8 14-11 13-5 19-11 19-22 0-11-8-21-28-21-7 0-16 2-20 4z"/>
<glyph unicode="&#70;" d="M512 101l-512 0 0 11c0 132 115 240 256 240 141 0 256-108 256-240z m-491 22l470 0c-7 115-109 208-235 208-126 0-228-93-235-208z m224 378l22 0 0-160-22 0z m11-501c-59 0-107 45-107 100 0 3 0 6 1 9 0 1 0 2 0 3l0 11 209 0 3-9c1-5 1-9 1-14 0-55-48-100-107-100z m-85 101c0 0 0-1 0 0 0-44 38-80 85-80 47 0 85 36 85 79 0 0 0 1 0 1z"/>
<glyph unicode="&#71;" d="M337 304c0 0-1 0 0 0l-327 26c-6 0-10 5-10 10l0 111c0 6 4 10 10 11l326 43c3 0 6-2 9-3 2-2 3-5 3-8l0-179c0-4-1-6-3-8-3-2-5-3-8-3z m-316 46l305-24 0 156-305-40z m385-55c-10 0-22 3-34 7-4 1-7 5-7 9l0 185c0 4 3 9 7 10 74 24 140-32 140-103 0-60-47-108-106-108z m-20 24c8-2 14-2 20-2 47 0 85 38 85 86 0 48-38 88-85 88-6 0-12-1-20-2z m-107-264c-37 0-74 36-75 38-5 3-5 9-1 14 40 54 39 177 39 178 0 3 1 6 3 8 2 2 6 4 9 4l94-11c5-1 9-5 9-11-5-100-47-202-49-207-1-2-3-4-5-5-6-5-15-8-24-8z m-54 47c11-8 33-24 54-24 5 0 8 0 11 2 8 19 39 103 45 186l-72 8c-1-33-5-120-38-172z m53-102c-9 0-18 2-25 7-19 14-24 40-12 69l20-9c-8-20-6-35 5-42 10-8 26-5 37 5l4 4c10 9 17 15 24 27 1 2 2 4 3 7 6 13 13 28 24 35 16 11 46 11 61 8 14-2 33-13 44-28l-18-12c-7 10-20 18-30 20-14 3-36 1-46-5-7-4-13-16-17-25-1-3-2-6-4-9-9-15-18-23-28-32l-4-4c-10-11-24-16-38-16z m-192 457l22 0 0-118-22 0z"/>
<glyph unicode="&#72;" d="M428 0l-343 0c-6 0-10 4-10 11l0 418c0 5 3 9 8 10l2 0c40 8 174 36 256 72 4 2 8 1 11-1 3-2 5-5 5-9l0-62 72 0c6 0 10-4 10-10l0-418c-1-7-5-11-11-11z m-332 21l321 0 0 397-71 0c-7 0-11 4-11 11l0 56c-80-32-195-56-239-65z m49 109c1 10 1 21 1 29 2-8 4-16 8-26l10-31 7 0 11 32c4 10 7 17 9 25 0-9 0-19 1-29l2-29 9 0-5 66-10 0-12-32c-3-8-5-16-6-22-3 6-5 14-7 22l-12 32-10 0-4-66 8 0z m108-21l-29 0 0 24 26 0 0 7-26 0 0 21 28 0 0 8-37 0 0-67 38 0z m19 21c0 11 0 19-1 27 3-8 7-15 13-23l21-33 9 0 0 66-9 0 0-27c0-11 0-18 1-27-3 6-7 14-12 21l-21 33-10 0 0-66 9 0z m80-29c14 0 25 9 25 29l0 39-9 0 0-40c0-15-6-21-16-21-9 0-15 6-15 21l0 40-8 0 0-39c-2-21 9-29 23-29z m18 317l-286 0c-6 0-10 4-10 11 0 6 4 10 10 10l286 0c7 0 11-4 11-10 0-7-4-11-11-11z"/>
<glyph unicode="&#73;" d="M346 505l21-7-90-278-20 7z m9-364l-208 67 19 59 208-68z m-181 81l167-53 6 18-168 53z m-24-160c-6 11-13 25-10 40l0 1c1 3 1 5 2 7 1 3 2 6 2 8 0 1-1 4-1 6-1 4-3 8-3 15 0 8 5 12 7 16 1 1 1 1 2 2 2 3 2 6 2 7 0 2-1 3-1 5-1 3-4 9-1 17l1 2c3 4 4 6 4 9 0 0 0 1-1 2-2 5-5 13 3 20l15-15c2 2 2 4 2 4 0-1 0-2 1-2 1-2 1-5 1-9 0-7-2-12-5-17 0 0 0-1 1-2 1-2 2-5 3-9 1-9-1-18-7-24-1-2-3-3-4-4 0 0-1-1-1-1 0-2 1-5 2-7 1-3 3-7 3-12 0-7-2-12-4-18 0-1-1-3-1-4-1-7 4-18 9-24z m46-14c-6 11-14 26-10 41l0 1c1 2 1 4 2 6 1 3 2 6 2 9 0 1-1 3-1 5-1 4-3 8-3 15 0 8 5 13 7 16 1 1 1 1 2 2 2 3 2 6 2 7 0 3-1 4-1 5-1 3-4 9-1 17 0 1 1 3 1 4 1 2 1 4 1 6 0 0 0 1-1 3-1 4-4 12 3 19l15-15c3 2 3 4 3 4 0-1 0-2 1-2 1-2 1-5 1-9 0-5-1-9-2-12 0-1-2-3-2-4 0-1 0-1 2-3 1-2 2-5 3-9 1-9-1-17-7-24-1-2-3-3-4-4 0 0-1-1-1-1 0-2 1-4 2-7 1-3 3-7 3-12 0-7-2-12-4-17 0-2-1-4-1-5-1-7 4-18 9-24z m43-15c-6 11-14 26-11 41l0 1c1 2 1 4 2 6 1 3 3 6 3 9 0 1-2 3-2 5-1 4-3 8-3 15 0 8 6 13 8 16 1 1 1 1 2 2 2 3 2 6 2 7 0 3-1 4-1 5-1 3-4 9-1 17l1 2c2 4 3 6 3 10 0 0 0 1-1 2-1 4-4 12 3 19l15-15c2 2 2 4 2 4 0-1 0-2 1-2 1-2 1-5 1-8 0-8-2-13-5-18 0 0 0-1 1-2 1-2 2-5 3-9 1-9-1-17-6-24-1-2-3-3-4-4 0 0-1-1-1-1 0-2 1-4 2-6 1-4 3-8 3-13 0-7-2-12-4-17 0-1-1-4-1-5-1-7 4-18 8-24z m46-14c-7 11-14 26-11 41l0 1c1 2 1 4 2 6 1 3 2 7 2 9 0 1-1 3-1 5-1 4-3 9-3 15 0 9 5 13 8 16 1 1 1 1 2 2 2 3 2 7 2 8 0 2-1 3-1 4-1 3-4 9-1 17 0 1 1 3 1 4 1 2 1 4 1 7 0 0 0 1-1 2-1 4-4 13 3 19l15-15c2 2 2 4 2 4 0-1 0-2 1-2 1-2 1-5 1-8 0-6-1-10-2-13 0-1-1-2-1-3 0-1 0-1 1-4 1-2 2-5 3-9 1-9-1-17-6-24-1-2-3-3-4-4 0 0-1-1-1-1 0-2 1-3 2-6 1-4 3-8 3-13 0-7-2-12-4-17 0-1-1-3-1-5-2-7 4-18 8-24z m42-14c-6 11-13 26-10 41l0 1c1 2 1 4 2 6 1 4 2 7 2 9 0 1-1 3-1 5-1 4-3 9-3 15 0 9 5 13 7 16 1 1 1 1 2 2 3 3 3 7 3 8 0 2-2 3-2 4-1 3-4 10-1 17l1 2c3 4 4 7 4 10 0 0 0 1-1 2-1 4-5 13 3 19l15-15c2 2 2 4 2 4 0-1 0-2 1-2 1-2 1-5 1-8 0-8-2-13-5-17 0 0 0-1 1-2 1-3 2-6 3-10 1-9-1-17-6-23-2-3-4-4-5-5 0 0-1-1-1-1 0-2 1-3 2-6 1-3 4-8 4-13 0-6-3-12-5-17-1-1-1-3-1-4-1-8 4-18 9-25z"/>
<glyph unicode="&#74;" d="M443 0l-374 0c-6 0-10 4-10 11l0 335c0 6 4 10 10 10 7 0 11-4 11-10l0-325 352 0 0 325c0 6 4 10 11 10 6 0 10-4 10-10l0-335c0-7-4-11-10-11z m58 289c-2 0-4 1-6 2l-239 196-239-196c-4-3-11-3-15 2-4 5-3 12 1 15l246 202c4 3 9 3 13 0l246-202c4-4 5-10 1-15-1-3-4-4-8-4z m-400 79c-6 0-10 4-10 11l0 86c0 6 4 11 10 11 7 0 11-5 11-11l0-86c0-7-4-11-11-11z m12-116c5-3 13-6 20-6 12 0 18 7 18 15 0 9-4 13-16 17-13 6-22 13-22 25 0 14 11 23 28 23 8 0 15-2 19-4l-3-9c-3 1-9 4-16 4-12 0-16-8-16-13 0-9 5-12 17-17 15-5 22-13 22-26 0-12-9-24-30-24-8 0-17 2-22 5z m76 72l0-36 41 0 0 36 12 0 0-86-12 0 0 40-41 0 0-40-11 0 0 86z m146-41c0-30-18-46-41-46-22 0-38 18-38 44 0 27 17 44 41 44 22 1 38-17 38-42z m-67-2c0-19 9-36 27-36 19 0 28 16 28 37 0 17-8 35-28 35-18 0-27-17-27-36z m81 42c5 1 13 2 21 2 11 0 19-2 25-7 4-4 7-11 7-18 0-8-2-14-6-18-7-7-16-10-27-10-3 0-6 0-8 1l0-34-11 0 0 84z m12-41c2-1 5-1 9-1 14 0 21 6 21 18 0 11-8 17-20 17-5 0-8 0-10-1z m-40-282l-130 0c-6 0-11 4-11 11l0 195c0 6 5 11 11 11l130 0c6 0 11-5 11-11l0-195c0-7-5-11-11-11z m-119 21l108 0 0 174-108 0z"/>
<glyph unicode="&#75;" d="M220 327c-1 0-1 0-2 0-5 2-9 5-9 10 0 4-8 98 35 146 38 42 102 38 187-14 4-2 6-7 5-11-1-5-5-8-10-8-1 0-138-2-197-117-2-3-5-6-9-6z m91 164c-21 0-38-8-51-22-22-24-29-65-30-95 48 64 119 87 161 93-30 16-57 24-80 24z m148-271c-4 0-8 2-9 5-55 90-166 99-211 99-16 0-26-1-26-1-5 0-9 2-11 7-3 4 0 9 4 12 75 52 134 77 178 77 28 0 50-9 65-29 43-52 21-157 20-162-1-4-4-7-8-8-1 0-1 0-2 0z m-210 126c49-1 144-15 203-88 3 33 6 89-19 119-31 37-93 25-184-31z m-116-225c-3 0-5 1-7 3l-1 1c-41 36-104 105-82 161 16 41 73 62 177 62 4 0 8-2 9-7 2-4 1-8-2-11-1-1-108-105-83-196 0-1 0-2 0-3 0-6-4-10-11-10z m61 204c-76-3-120-19-131-48-11-26 11-70 56-117-2 68 47 134 75 165z m26 2c-3 0-6 2-8 4-14 15-41 22-81 22-41 0-81-8-82-8-4-2-8 1-11 4-2 3-3 7-1 12 32 58 63 87 96 87 61 0 95-102 96-107 1-4 0-9-4-12-2-2-3-2-5-2z m-89 47c27 0 49-3 66-9-15 29-37 62-64 62-20 0-42-20-66-57 16 2 40 4 64 4z m263-374l-196 0c-6 0-10 4-10 11 0 6 4 10 10 10l196 0c6 0 10-4 10-10 0-7-4-11-10-11z m-44 0l-111 0c-3 0-5 1-8 3-2 2-3 6-3 9 14 170-4 273-17 319-1 4-2 8 1 12 3 5 10 6 15 3 141-99 134-326 134-335 0-7-6-11-11-11z m-99 21l88 0c0 42-8 201-101 288 12-54 23-148 13-288z"/>
<glyph unicode="&#76;" d="M92 174l-79 0 0 11c0 50 25 146 121 146l33 0c19 41 61 68 110 68 49 0 92-27 110-68l125 0 0-85-128 0c-19-38-61-63-107-63-47 0-88 25-106 63l-37 0c-29 0-32-61-32-61l0-11z m-58 21l47 0c2 23 12 73 52 73l50 0 4-7c14-34 50-56 90-56 41 0 77 22 91 56l3 7 120 0 0 41-119 0-2 8c-13 36-50 61-93 61-42 0-80-25-92-61l-3-8-48 0c-83 0-97-84-100-114z m25-195c-33 0-59 23-59 54 0 27 43 80 51 90l9 10 8-10c9-11 50-63 50-90 0-31-26-54-59-54z m1 121c-18-24-39-54-39-67 0-18 16-33 38-33 21 0 38 15 38 33 0 13-20 43-37 67z m197 380l21 0 0-112-21 0z m-75 11l171 0 0-21-171 0z"/>
<glyph unicode="&#77;" d="M268 34l-197 0c-5 0-9 4-10 10l-34 253c0 3 0 6 2 8 2 2 5 3 8 3l265 0c3 0 6-1 8-3 3-2 4-5 3-8l-35-253c-1-6-5-10-10-10z m-187 21l178 0 31 232-241 0z m228 242l-21 0c0 88-53 160-118 160-65 0-119-72-119-160l-21 0c0 100 63 181 140 181 76 0 139-81 139-181z m-263-47l247 0 0-22-247 0z m333-205c-6 0-11 1-15 3-11 4-18 14-24 28-16 39-5 106 14 150 18 40 42 60 73 60 11 0 23-3 36-9 22-9 37-22 45-40 7-20 5-45-7-74-24-56-80-118-122-118z m47 218c-22 0-39-14-53-46-19-44-25-104-14-134 4-8 8-13 13-15 2-1 5-1 7-1 28 0 80 52 101 105 10 23 13 42 6 57-5 12-16 22-33 29-9 3-19 5-27 5z m60 91l19-9-52-121-20 8z m-475-299l490 0 0-21-490 0z"/>
<glyph unicode="&#78;" d="M448 82l-384 0c-35 0-64 29-64 64l0 220c0 35 29 64 64 64l384 0c35 0 64-29 64-64l0-220c0-35-29-64-64-64z m-384 327c-23 0-43-20-43-43l0-220c0-23 20-43 43-43l384 0c23 0 43 20 43 43l0 220c0 23-20 43-43 43z m223-175l-34 105 14 0 16-52c4-14 8-27 11-40 4 12 8 26 12 40l18 52 15 0-37-105z m78 105l0-105-14 0 0 105z m23-1c7 1 15 2 26 2 14 0 23-3 30-8 5-6 9-13 9-23 0-9-3-17-8-22-8-8-19-12-32-12-4 0-8 0-11 1l0-42-14 0c0 0 0 104 0 104z m14-51c3-1 7-1 12-1 16 0 27 7 27 22 0 14-10 21-25 21-6 0-11 0-13-2z m-184-111l-184 0 0 212 184 0z m-163 21l141 0 0 170-141 0z m71 89c-20 0-37 17-37 37 0 20 17 38 37 38 20 0 37-18 37-38 0-20-17-37-37-37z m0 53c-9 0-16-7-16-16 0-8 7-16 16-16 8 0 16 8 16 16 0 9-8 16-16 16z m57-151c-1 41-26 74-57 74-31 0-57-34-58-74l-21 0c1 53 36 96 79 96 43 0 78-42 79-96z m-104-38l86 0 0-21-86 0z m220 0l86 0 0-21-86 0z"/>
<glyph unicode="&#79;" d="M396-1l-280 0c-20 0-38 17-38 37 0 21 17 37 37 38 8 55 48 101 103 116l0 284c0 21 17 38 38 38 21 0 38-17 38-38l0-284c55-15 94-61 103-116 20-1 37-17 37-38 0-20-17-37-38-37z m-280 53c-9 0-17-7-17-16 0-8 9-16 17-16l280 0c9 0 17 8 17 16 0 9-8 16-17 16l-18 0-1 10c-5 53-43 98-95 109l-9 2 0 301c0 9-7 17-17 17-10 0-17-8-17-17l0-301-9-2c-52-11-90-56-95-109l-1-10z m213 5c-2 56-60 77-60 77l6 21c3-1 74-26 75-97z"/>
<glyph unicode="&#80;" d="M454 127l-401 0c-30 0-53 24-53 55l0 319c0 7 4 11 11 11l206 0c3 0 5-1 7-3 2-2 3-6 3-8l-5-186c130-9 249-48 279-96 12-18 13-42 4-62-11-18-29-30-51-30z m-433 364l0-309c0-19 14-34 32-34l401 0c13 0 25 8 31 19 7 13 7 28-2 40-23 37-132 80-273 86-5 0-11 6-11 11l7 187z m47-491c-32 0-58 27-58 59 0 32 26 58 58 58 32 0 59-26 59-58 0-32-27-59-59-59z m0 96c-20 0-37-17-37-37 0-21 17-38 37-38 21 0 38 17 38 38 0 20-17 37-38 37z m120-96c-32 0-59 27-59 59 0 32 27 58 59 58 32 0 58-26 58-58 0-32-26-59-58-59z m0 96c-21 0-38-17-38-37 0-21 17-38 38-38 20 0 37 17 37 38 0 20-17 37-37 37z m120-96c-32 0-58 27-58 59 0 32 26 58 58 58 32 0 59-26 59-58 0-32-27-59-59-59z m0 96c-20 0-37-17-37-37 0-21 17-38 37-38 21 0 38 17 38 38 0 20-17 37-38 37z m120-96c-32 0-59 27-59 59 0 32 27 58 59 58 32 0 58-26 58-58 0-32-26-59-58-59z m0 96c-21 0-38-17-38-37 0-21 17-38 38-38 20 0 37 17 37 38 0 20-17 37-37 37z m0-48l-360 0c-6 0-10 4-10 11 0 6 4 10 10 10l360 0c6 0 10-4 10-10 0-7-4-11-10-11z"/>
<glyph unicode="&#81;" d="M463 255l-414 0 86 257 242 0z m-384 21l354 0-71 215-212 0z m177-276c-82 0-148 76-148 169 0 38 10 73 31 103l3 4 229 0 3-4c21-29 31-66 31-103-1-93-67-169-149-169z m-103 255c-16-25-24-54-24-86 0-82 57-148 127-148 70 0 127 66 127 148 0 30-9 61-24 86z"/>
<glyph unicode="&#82;" d="M416 423c35 0 64-28 64-64l0-184c0-35-29-64-64-64l-320 0c-35 0-64 29-64 64l0 184c0 36 29 64 64 64l320 0m0 22l-320 0c-47 0-85-39-85-86l0-184c0-47 38-85 85-85l320 0c47 0 85 38 85 85l0 184c0 47-38 86-85 86z m-240-315c-76 0-137 61-137 137 0 75 61 136 137 136 76 0 137-61 137-136 0-76-61-137-137-137z m0 252c-64 0-115-51-115-115 0-64 51-116 115-116 64 0 115 52 115 116 0 64-51 115-115 115z m172 0l95 0 0-21-95 0z m0-52l95 0 0-22-95 0z m0-53l95 0 0-21-95 0z m0-52l95 0 0-21-95 0z m0-52l95 0 0-22-95 0z m-150 81c-8 0-17 1-24 2-3 1-7 3-8 6-1 4-1 7 0 10 16 28 31 65 27 76-1 4 0 8 3 10 3 4 8 4 12 3 5-3 49-21 58-50 2-8 3-20-8-34-12-15-33-23-60-23z m-6 21c22-1 41 4 48 15 5 8 5 13 4 16-3 11-18 21-31 29-3-20-14-44-21-60z m-21-109c-23 0-38 12-42 32-4 27 17 58 40 77 3 2 6 3 9 2 3-1 7-3 8-6 9-30 27-65 38-69 4-1 6-6 6-10 0-4-2-9-5-10-1-1-30-16-54-16z m0 81c-14-16-24-34-22-45 1-7 6-15 22-15 9 0 21 3 30 6-14 16-24 38-30 54z m-85 9c-2 0-3 0-5 1-3 2-6 5-5 10 1 28 14 76 49 76 4 0 9-1 14-2 27-9 43-44 47-73 0-3-1-7-4-10-3-2-6-2-9-2 0 0-30 6-55 6-18 0-23-3-24-4-3-1-5-2-8-2z m32 28c15 0 32-2 44-5-5 21-17 38-30 42-2 1-5 1-7 1-15 0-23-22-26-40 6 2 12 2 19 2z m-54-206l47 0 0-21-47 0z m337 0l47 0 0-21-47 0z"/>
<glyph unicode="&#83;" d="M366 66l-219 0c-13 0-24 5-33 14-7 9-12 19-11 31l16 275c0 19 19 34 42 34l188 0c22 0 41-15 42-34l18-275c1-12-4-22-11-31-9-10-19-14-32-14z m-205 333c-11 0-20-6-20-14l-16-276c0-6 1-11 5-15 4-4 11-8 17-8l219 0c6 0 12 3 16 7 4 4 5 9 5 15l-17 276c-1 7-11 15-21 15z m193-268l-196 0 9 142 178 0z m-173 22l150 0-7 99-136 0z m-3 209l156 0 0-22-156 0z m1-341l-35 0 1 56 21 0-1-34 14 0z m153 388l-6 82-141 0-5-82-21 2 6 101 181 0 7-101z m-125-409c-21 0-38 14-38 32 0 17 17 31 38 31 21 0 38-14 38-31 0-18-17-32-38-32z m0 42c-10 0-17-5-17-10 0-5 6-11 17-11 11 0 17 6 17 11 0 4-7 10-17 10z m164-21l-34 0 0 22 13 0-2 34 21 0z m-61-21c-21 0-39 14-39 32-1 6 2 14 6 19 8 8 18 12 31 12 22 0 38-13 40-30 1-7-2-15-8-21-6-8-18-12-30-12z m-2 42c-7 0-13-4-15-6-1-1-2-2-1-3l0-1c0-5 9-11 18-11 7 0 12 2 14 6 2 2 2 4 2 4 0 5-8 11-18 11z"/>
<glyph unicode="&#84;" d="M256 59c-32 0-59 26-59 58 0 32 27 59 59 59 32 0 59-27 59-59 0-32-27-58-59-58z m0 96c-20 0-37-17-37-38 0-20 17-37 37-37 20 0 37 17 37 37 0 21-17 38-37 38z m-111 51l-15 15c33 33 78 52 126 52 47 0 92-18 126-52l-15-15c-30 30-68 46-110 46-44 0-82-16-112-46z m283 61c-95 95-249 95-344 0l-15 15c104 103 271 103 374 0z m66 66c-131 131-345 131-476 0l-15 15c140 139 366 139 506 0z"/>
<glyph unicode="&#85;" d="M102 255l-9 6c-17 11-41 15-62 10-2-1-4-1-8-2-3-2-6-2-8-3l-16-7 1 17c7 85 85 160 191 185 22 5 45 7 66 7 81 0 153-34 187-90l9-16-19 0c-3 0-8-1-15-3-22-5-42-18-52-35l-5-9-10 6c-17 11-41 15-62 10-24-6-44-18-53-36l-6-9-9 6c-17 11-41 15-62 10-25-5-44-18-53-35z m-51 39c16 0 31-3 44-9 14 18 35 31 61 36 23 5 49 3 69-6 14 18 35 31 61 36 23 5 49 3 69-8 14 19 36 31 61 38-33 41-93 66-159 66-20 0-42-2-62-8-89-20-158-81-172-149 0 0 0 0 2 0 9 3 18 4 26 4z m188 8l66-288-21-5-66 288z m216-299l-46 43-344 0-62 111 19 10 56-100 339 0 53-49z m-384 159c-23 0-41 18-41 42 0 23 18 41 41 41 24 0 42-19 42-41 0-23-18-42-42-42z m0 62c-10 0-20-10-20-20 0-11 10-21 20-21 11 0 21 10 21 21 0 10-10 20-21 20z m412-185c-7 0-16 2-23 9-47 45-94 54-124 54-3 0-7 0-11 0-7-13-22-23-37-25-53-7-107-3-156 10-22 7-38 30-36 54l0 2c1 20 16 34 35 34 4 0 9-1 13-2 49-13 99-16 147-11l1 0c9 0 15-1 22-4 7 1 16 1 24 1 42 0 104-13 165-71 7-6 10-13 10-21 0-8-3-16-8-22-7-4-14-8-22-8z m-147 85c34 0 86-11 139-61 1-1 3-2 8-2 1 0 2 1 3 2l1 1c3 2 4 4 4 7 0 3-1 4-4 6-57 54-114 65-151 65-9 0-17-1-25-2l-4-1-3 2c-3 2-7 3-13 3-50-6-103-2-154 11-3 1-5 1-7 1-8 0-14-6-14-14l0-2c-1-14 9-29 22-32 45-13 97-17 147-11 9 1 19 10 23 19l2 6 7 1c6 1 13 1 19 1z m-240-60l15-15-44-45-16 15z m92 440l11-49-21-4-10 49z"/>
<glyph unicode="&#86;" d="M512 342l-192 0 0 16c0 54 43 96 96 96 53 0 96-42 96-96z m-171 22l150 0c-4 38-36 69-75 69-39 0-71-31-75-69z m75 84c-13 0-23 11-23 23 0 13 10 24 23 24 13 0 23-11 23-24 0-12-10-23-23-23z m0 26c-1 0-2-1-2-3 0-2 4-2 4 0 0 2-1 3-2 3z m-243-81c-33 0-60 26-60 59 0 33 27 60 60 60 33 0 60-27 60-60 0-33-27-59-60-59z m0 98c-22 0-39-17-39-39 0-21 17-38 39-38 21 0 38 17 38 38 0 22-17 39-38 39z m77-491l-70 0 0 151-9 0 0-151-70 0 0 308-1 0-30-73c-8-18-21-27-37-27-4 0-8 1-12 1-7 1-14 5-17 12-5 8-6 19-2 30 13 38 32 96 35 105l1 2c9 22 46 30 79 30l29 0 28-81 28 81 21 0c3 0 81 0 83-32 1-3 4-19 8-33 1 1 2 1 3 2 4 4 8 6 16 11 12 9 30 6 40-4 9-10 9-19 9-25-1-8-5-16-13-20-8-6-28-21-40-31-8-6-14-11-15-12l-3 1c-6-3-11-4-18-4-14 0-26 9-32 16l-1 2-11 32 0-291z m-48 21l26 0 0 309 31 0 22-61c2-2 6-7 12-7 2 0 6 1 9 3 2 1 6 5 13 9 14 11 32 25 41 31 1 1 3 3 3 6 0 3-1 5-3 8-2 2-8 3-11 1-8-5-12-9-16-12-5-3-9-5-16-10l-12-10-3 15c-10 42-12 49-12 51-4 4-28 13-62 13l-6 0-43-126-43 126-15 0c-34 0-56-10-59-17-3-8-10-29-36-107-1-5-1-9 0-13 1-1 3-2 4-2 2 0 4-1 7-1 5 0 12 2 17 14l35 89 38 0 0-309 26 0 0 152 53 0z"/>
<glyph unicode="&#87;" d="M95 0c-45 0-82 37-82 82l0 302c0 45 37 82 82 82 45 0 82-37 82-82l0-302c0-45-37-82-82-82z m0 445c-33 0-61-28-61-61l0-302c0-33 28-61 61-61 33 0 61 28 61 61l0 302c0 33-28 61-61 61z m193-445c-45 0-82 37-82 82l0 302c0 45 37 82 82 82 45 0 82-37 82-82l0-302c0-45-37-82-82-82z m0 445c-33 0-61-28-61-61l0-302c0-33 28-61 61-61 33 0 61 28 61 61l0 302c0 33-28 61-61 61z m-122-123l-143 0c-6 0-10 4-10 11 0 6 4 10 10 10l143 0c7 0 11-4 11-10 0-7-4-11-11-11z m0-217l-143 0c-6 0-10 4-10 10 0 7 4 11 10 11l143 0c7 0 11-4 11-11 0-6-4-10-11-10z m193 217l-142 0c-7 0-11 4-11 11 0 6 4 10 11 10l142 0c7 0 11-4 11-10 0-7-4-11-11-11z m0-217l-142 0c-7 0-11 4-11 10 0 7 4 11 11 11l142 0c7 0 11-4 11-11 0-6-4-10-11-10z m-235 336l-58 0c-6 0-11 4-11 10l0 50c0 7 5 11 11 11l58 0c6 0 10-4 10-11l0-50c0-6-4-10-10-10z m-47 21l36 0 0 29-36 0z m240-21l-58 0c-6 0-10 4-10 10l0 50c0 7 4 11 10 11l58 0c6 0 10-4 10-11l0-50c0-6-4-10-10-10z m-47 21l36 0 0 29-36 0z m200-272c-1 0-2 0-3 0-5 2-8 7-7 13 47 154 31 225 9 258-18 26-41 30-42 30l-416 0c-7 0-11 4-11 10 0 7 4 11 11 11l417 0c2 0 34-3 58-38 37-54 35-147-5-277-2-4-6-7-11-7z m-26-110c-38 0-69 31-69 69 0 39 31 70 69 70 37 0 68-31 68-70 0-38-31-69-68-69z m0 117c-26 0-47-21-47-48 0-26 21-48 47-48 25 0 47 22 47 48 0 27-22 48-47 48z"/>
<glyph unicode="&#88;" d="M18 150l-14 16c7 6 15 10 23 13 4 2 7 3 10 6 12 6 24 11 38 12 21 4 51 8 74 2 12-3 24-8 34-13 6-3 11-6 16-8 11-4 23-4 36-3 3 0 7 0 10 0 17 0 33 6 49 13 19 7 37 15 58 15 20 0 35-1 54-9 17-6 35-12 51-16 13-3 21-1 36 4l4 1 6-20-4-1c-16-5-28-8-48-4-17 4-35 9-52 16-15 6-27 7-46 7-17 0-33-6-49-12-18-8-36-15-58-15-3 0-6 0-9 0-15 0-29-1-44 5-5 2-12 5-18 7-10 5-20 10-30 12-19 5-47 1-67-2-11-1-20-5-30-11-4-2-9-4-13-5-7-3-14-5-17-10z m0-68l-14 16c7 5 15 10 23 13 4 2 7 3 10 5 12 6 24 12 38 13 21 3 51 8 74 2 12-3 24-8 34-13 6-2 11-5 16-7 11-4 23-4 36-3 3 0 7 0 10 0 17 0 33 6 49 13 19 7 37 14 58 14 20 0 35-1 54-8 17-6 35-12 51-16 13-3 21-1 36 4l4 1 6-20-4-1c-16-5-28-9-48-4-17 4-35 9-52 16-16 5-29 6-47 6-17 0-33-6-49-13-18-7-36-15-58-15-3 0-6 0-9 0-14 0-29-1-44 6-5 2-12 5-18 7-10 4-20 10-30 12-19 5-47 1-67-2-11-1-20-6-30-11-4-2-9-4-13-5-6-3-13-6-16-10z m202 113l-22 0 0 175c0 12-3 20-9 28-14 13-36 13-36 13l0 21c1 0 32 0 52-19 10-11 16-26 16-43l0-175z m153 25l-21 0 0 150c0 12-3 20-10 28-13 13-36 13-36 13l0 21c1 0 32 0 52-19 11-11 16-26 16-43l0-150z m-162 138l150 0 0-21-150 0z m0-53l150 0 0-21-150 0z m0-53l150 0 0-22-150 0z"/>
<glyph unicode="&#89;" d="M157 113l-102 0 0 285 102 0z m-80 21l58 0 0 243-58 0z m0 52l-77 0 0 139 77 0z m-56 21l34 0 0 97-34 0z m491-21l-77 0 0 139 77 0z m-55 21l34 0 0 97-34 0z m0-94l-102 0 0 285 102 0z m-80 21l58 0 0 243-58 0z m-231 133l220 0 0-22-220 0z"/>
<glyph unicode="&#90;" d="M485 0l-457 0 0 512 457 0z m-436 21l415 0 0 470-415 0z m378 332l-190 0 0 97 190 0z m-169 21l147 0 0 55-147 0z m-3-65l35 0 0-21-35 0z m66 0l34 0 0-21-34 0z m72 0l34 0 0-21-34 0z m-138-52l35 0 0-21-35 0z m66 0l34 0 0-21-34 0z m72 0l34 0 0-21-34 0z m-138-52l35 0 0-22-35 0z m66 0l34 0 0-22-34 0z m72 0l34 0 0-22-34 0z m-138-52l35 0 0-22-35 0z m66 0l34 0 0-22-34 0z m72 0l34 0 0-22-34 0z m0-59l34 0 0-21-34 0z m-181-42l-133 0-1 10c-14 129-14 259 0 388l1 10 133 0 1-10c15-129 15-259 0-388z m-114 22l95 0c14 121 14 243 0 364l-95 0c-13-121-13-243 0-364z"/>
<glyph unicode="&#48;" d="M18 508l184-229-17-13-183 229z m154-453c-8 0-11 4-13 6-2 2-4 7-3 15 4 21 4 36-2 74-7 37-4 76 7 103 9 22 33 46 68 46 21 0 43-8 65-24 51-35 79-37 80-37 5 0 8-3 10-7 1-4 1-8-2-11l-37-40c-4-3-8-4-12-2l-30 13c7-9 13-18 14-26 1-6-1-12-4-17-18-22-62-46-63-47-6-2-11-1-14 5l-12 15 4-31c1-5-1-9-4-11-7-5-36-24-52-24z m0 22l0-11z m56 199c-27 0-43-20-48-32-7-18-13-52-5-91 5-36 6-53 3-76 8 2 19 8 29 15l-12 78c-1 5 2 9 7 11 4 2 9 0 12-4l32-53c15 8 38 23 47 36 2 7-21 34-55 58-4 3-5 9-3 13 3 5 8 7 14 5l84-37 19 21c-16 5-39 15-70 37-20 13-37 19-54 19z m211-141c0 9-11 15-24 15-14 0-25-6-25-15 0-8 11-14 25-14 13 0 24 6 24 14z m26 85c0 9-9 17-21 17-12 0-22-8-22-17 0-10 10-17 22-17 12 0 21 7 21 17z m-113-134c0 7-8 13-18 13-10 0-18-6-18-13 0-7 8-12 18-12 10 0 18 5 18 12z m70-27c0 8-7 15-16 15-8 0-16-7-16-15 0-9 8-15 16-15 9 0 16 6 16 15z m79 20c0 11-5 20-11 20-7 0-12-9-12-20 0-11 5-20 12-20 6 0 11 9 11 20z m-143-56c0 8-18 13-41 13-23 0-42-5-42-13 0-7 19-12 42-12 23 0 41 5 41 12z"/>
<glyph unicode="&#49;" d="M407 0l-249 0 0 114c-88 25-145 87-145 156l0 11 300 0c-2 7-3 14-3 21l-310 0 0 64 309 0 0 93c0 30 26 53 58 53l87 0c31 0 58-23 59-53l0-168c0-23-17-44-42-50-8-34-30-65-64-90z m-228 21l207 0 0 141 4 3c35 24 56 54 62 87l1 7 8 1c17 2 30 16 30 31l0 168c-1 17-17 32-38 32l-87 0c-19 0-35-14-35-32l0-114-310 0 0-22 310 0 0-10c0-11 2-32 4-37l14-17-23 1-291 0c6-57 59-107 136-127l8-2z"/>
<glyph unicode="&#50;" d="M409 102l-306 0c-18 0-33 15-33 33l0 148c0 18 15 33 33 33l306 0c18 0 33-15 33-33l0-148c0-18-15-33-33-33z m-306 192c-6 0-11-5-11-11l0-148c0-6 5-11 11-11l306 0c5 0 11 6 11 11l0 148c0 6-5 11-11 11z m376-294l-446 0c-14 0-26 7-31 19-4 10-2 20 7 28l58 66c8 8 16 11 25 11l327 0c10 0 20-6 26-12l58-65c8-8 10-18 6-28-4-12-16-19-30-19z m-387 102c-3 0-7-2-10-4l-59-66c-2-2-2-4-1-5 1-4 6-6 11-6l446 0c6 0 10 4 11 6 0 1 1 3-1 5l-60 66c-1 2-6 4-10 4z m161 238c-22 0-39 17-39 39 0 21 17 38 39 38 21 0 38-17 38-38 0-22-17-39-38-39z m0 56c-10 0-17-8-17-17 0-10 7-17 17-17 9 0 17 7 17 17 0 9-8 17-17 17z m58 21c-33 32-86 32-118 0l-15 15c41 41 107 41 148 0z m36 35c-53 51-137 51-188 0l-15 15c60 60 157 60 218 0z"/>
<glyph unicode="&#51;" d="M256 327c-22 0-41 19-41 41 0 22 19 41 41 41 22 0 41-19 41-41 0-22-19-41-41-41z m0 60c-11 0-19-8-19-19 0-11 8-19 19-19 11 0 19 8 19 19 0 11-8 19-19 19z m65 24c-35 35-94 35-129 0l-15 15c44 43 115 43 159 0z m37 37c-56 57-148 57-204 0l-15 15c65 65 169 65 234 0z m-39-448l-126 0c-23 0-43 19-43 43l0 224c0 23 20 42 43 42l125 0c23 0 43-19 43-42l0-224c0-24-19-43-42-43z m-126 288c-12 0-21-10-21-21l0-224c0-12 9-22 21-22l126 0c12 0 20 10 20 22l0 224c0 11-9 21-21 21z m-29-118l184 0 0-22-184 0z m39-37l20 0 0-21-20 0z m42 0l22 0 0-21-22 0z m44 0l20 0 0-21-20 0z m-86-36l20 0 0-21-20 0z m42 0l22 0 0-21-22 0z m44 0l20 0 0-21-20 0z m-86-36l20 0 0-22-20 0z m42 0l22 0 0-22-22 0z m44 0l20 0 0-22-20 0z"/>
<glyph unicode="&#52;" d="M501-5l-490 0c-7 0-11 4-11 10l0 455c0 6 4 10 11 10l490 0c7 0 11-4 11-10l0-455c0-6-4-10-11-10z m-480 21l470 0 0 433-470 0z m63 491l22 0 0-95-22 0z m322 0l22 0 0-95-22 0z m-337-204l34 0 0-21-34 0z m113 0l35 0 0-21-35 0z m113 0l35 0 0-21-35 0z m114 0l34 0 0-21-34 0z m-340-69l34 0 0-22-34 0z m113 0l35 0 0-22-35 0z m113 0l35 0 0-22-35 0z m114 0l34 0 0-22-34 0z m-340-70l34 0 0-21-34 0z m113 0l35 0 0-21-35 0z m113 0l35 0 0-21-35 0z m114 0l34 0 0-21-34 0z m-340-68l34 0 0-21-34 0z m113 0l35 0 0-21-35 0z m113 0l35 0 0-21-35 0z m114 0l34 0 0-21-34 0z m-398 261l490 0 0-21-490 0z"/>
<glyph unicode="&#53;" d="M469 84l-426 0c-24 0-43 19-43 43l0 258c0 24 19 43 43 43l426 0c24 0 43-19 43-43l0-259c0-24-19-42-43-42z m-426 322c-12 0-22-9-22-21l0-258c0-12 10-21 22-21l426 0c12 0 22 8 22 20l0 259c0 12-10 21-22 21z m260-239c-37 0-68 41-68 91 0 50 31 91 68 91 37 0 68-41 68-91 0-50-31-91-68-91z m0 160c-26 0-47-30-47-69 0-38 21-69 47-69 26 0 47 31 47 69 0 39-21 69-47 69z m-256-58l198 0 0-22-198 0z m19-13l21 0 0-38-21 0z m37 0l22 0 0-25-22 0z m319 116l22 0 0-232-22 0z"/>
<glyph unicode="&#54;" d="M33 116l446 0 0-21-446 0z m405-21l-365 0 0 245c0 70 56 126 125 126l115 0c69 0 125-56 125-126z m-344 21l323 0 0 224c0 58-47 105-104 105l-115 0c-57 0-104-47-104-105z m51-116c-24 0-44 19-44 44 0 24 20 43 44 43 25 0 44-19 44-43 0-25-19-44-44-44z m0 66c-13 0-22-9-22-22 0-13 9-23 22-23 13 0 22 10 22 23 0 13-9 22-22 22z m222-66c-25 0-44 19-44 44 0 24 19 43 44 43 24 0 44-19 44-43 0-25-20-44-44-44z m0 66c-13 0-22-9-22-22 0-13 9-23 22-23 13 0 22 10 22 23 0 13-9 22-22 22z m-20 62l-182 0c-22 0-40 18-40 41l0 106c0 23 18 41 40 41l182 0c22 0 40-18 40-41l0-108c0-21-18-39-40-39z m-182 166c-10 0-19-8-19-19l0-106c0-11 9-20 19-20l182 0c10 0 19 9 19 18l0 108c0 11-9 19-19 19z m148 0l-114 0 0 42c0 18 15 33 34 33l46 0c19 0 34-15 34-33z m-92 22l70 0 0 20c0 6-5 12-12 12l-46 0c-7 0-12-6-12-12z m24 185l22 0 0-100-22 0z"/>
<glyph unicode="&#55;" d="M512 0l-94 0 0 410-324 0 0-410-94 0 0 512 512 0z m-73 21l52 0 0 470-470 0 0-470 52 0 0 410 366 0z m-313 450l31 0 0-21-31 0z m54 0l31 0 0-21-31 0z m55 0l31 0 0-21-31 0z m54 0l31 0 0-21-31 0z m54 0l31 0 0-21-31 0z m111-183l22 0 0-39-22 0z m0-69l22 0 0-41-22 0z m-198 91c-26 0-46 21-46 46 0 26 20 46 46 46 26 0 46-20 46-46 0-25-20-46-46-46z m0 71c-14 0-25-11-25-25 0-14 11-24 25-24 14 0 25 10 25 24 0 14-11 25-25 25z m37-382c-18 0-32 12-32 28l0 100-10 0 0-99c0-16-14-28-32-28-18 0-32 12-32 28l0 163-16-16c-10-10-28-13-43-5-9 4-13 11-15 19-1 7 2 15 8 21l72 75c1 1 1 1 2 2 1 2 3 4 7 6 5 7 13 9 20 10 4 1 8 1 12 1l44 0c4 0 8 0 12-1 8 0 14-3 20-9 4-2 7-5 9-8l71-74c6-5 9-13 8-21-1-8-7-15-14-19-6-5-15-5-18-5-10 0-18 4-25 10l-16 16 0-164c0-18-14-30-32-30z m-64 149l54 0 0-121c0-4 4-7 10-7 7 0 11 3 11 7l0 217 52-54c2-2 6-3 10-3 3 0 6 1 6 1 2 1 5 3 5 4 0 1 0 2-2 3l-73 77c-1 2-2 3-4 4l-3 1c-2 2-4 4-7 4l-2 0-2 1c-1 0-3 0-7 0l-44 0c-3 0-5 0-7 0l-2-1c-3 0-5-2-6-3l-1-1-2-1c-1-1-2-2-3-3-1-1-2-2-2-3l-72-75c-1-1-1-2-1-3 0-1 1-2 3-3 6-3 14-2 17 1l52 54 0-216c0-3 4-7 11-7 6 0 10 4 10 7l0 120z"/>
<glyph unicode="&#56;" d="M458 203l-312 0 0 83 312 0z m-291 21l269 0 0 41-269 0z m2-21l-127 0 0 83 127 0z m-106 21l84 0 0 41-84 0z m340 74l-21 0c0 21-4 25-15 34-21 17-26 41-13 69l19-10c-11-24-2-36 7-43 16-13 23-24 23-50z m49 4l-21 0c0 2 0 4 0 6 1 10 1 16-10 27-1 1-2 2-3 2-9 8-32 25-22 52l20-7c-4-11 2-19 15-29 2-2 4-3 5-4 18-17 17-32 16-43 0-1 0-2 0-4z m-196-302c-141 0-256 115-256 256 0 141 115 256 256 256 141 0 256-115 256-256 0-141-115-256-256-256z m0 491c-129 0-235-106-235-235 0-129 106-235 235-235 129 0 235 106 235 235 0 129-106 235-235 235z m-171-65l356-324-14-16-356 324z"/>
<glyph unicode="&#57;" d="M358 0l-204 0 0 273 204 0z m-183 21l162 0 0 231-162 0z m81 389c-28 0-51 23-51 51 0 28 23 51 51 51 28 0 51-23 51-51 0-28-23-51-51-51z m0 81c-16 0-30-14-30-30 0-16 14-30 30-30 16 0 30 14 30 30 0 16-14 30-30 30z m106-201l-212 0 1 12c4 55 50 98 105 98 55 0 101-44 105-98z m-188 21l163 0c-7 39-42 68-82 68-38 0-73-29-81-68z m-57-38l278 0 0-21-278 0z m0-252l278 0 0-21-278 0z"/>
<glyph unicode="&#33;" d="M256 0c-141 0-256 115-256 256 0 141 115 256 256 256l0-21c-129 0-235-106-235-235 0-129 106-235 235-235 129 0 235 106 235 235l21 0c0-141-115-256-256-256z m-91 250l0 24 25 24c50 45 72 71 73 99 0 19-9 35-37 35-18 0-34-10-45-17l-11 28c15 12 38 21 65 21 47 0 69-30 69-64 0-37-27-67-63-101l-18-16 0-1 86 0 0-33-144 0z m263 0l0 53-95 0 0 26 86 131 47 0 0-127 28 0 0-30-28 0 0-53c0 0-38 0-38 0z m0 83l0 57c0 12 0 25 1 37l-1 0c-7-13-12-25-18-36l-39-57 0-1z"/>
<glyph unicode="&#34;" d="M354 0l-265 0c-7 0-11 4-11 11l0 306c0 56 47 103 103 103l80 0c57 0 104-47 104-103l0-306c0-7-4-11-11-11z m-255 21l244 0 0 296c0 45-37 82-82 82l-80 0c-44 0-82-37-82-82z m153 408l-72 0c-6 0-10 4-10 10l0 52c0 5 3 9 8 10 2 0 51 11 109 11 64 0 112-13 143-39 3-4 4-8 3-12-2-4-6-8-11-7 0 0-38 4-77 4-50 0-72-5-83-8l0-9c0-8-4-12-10-12z m-61 21l50 0 0 7c0 4 2 7 5 9 15 9 47 13 99 13 11 0 23 0 33-1-25 8-55 13-91 13-42 0-80-7-96-10z m88-400c-5 0-10 4-10 10l-15 217-165 0c-7 0-11 5-11 11 0 6 4 11 11 11l174 0c6 0 11-5 11-10l9-119 15 119c1 5 5 10 10 10l46 0c7 0 11-5 11-11 0-6-4-11-11-11l-36 0-28-217c-1-6-5-10-11-10z"/>
<glyph unicode="&#35;" d="M509 349l-126 0 0 21 104 0 0 121-466 0 0-121 108 0 0-21-129 0 0 163 509 0z m7-349l-484 0 101 435 237 0z m-456 21l427 0-132 393-205 0z m0 413l389 0 0-21-389 0z m99-175l24 0c0 16 6 32 11 41l24-7c-6-9-11-23-11-39 0-16 7-27 20-27 12 0 18 9 26 28 9 27 21 44 45 44 21 0 38-15 42-41l23 0 0-20-24 0c0-16-4-27-8-35l-24 6c3 6 9 17 9 34 0 18-9 24-17 24-11 0-16-10-25-31-11-28-23-41-46-41-21 0-40 15-45 43l-25 0 0 21z m143-168c0 15-12 27-27 27-15 0-26-12-26-27 0-16 11-28 26-28 15 0 27 12 27 28z"/>
<glyph unicode="&#36;" d="M461 0l-180 0-4 6c-1 1-2 5-6 16-2 7-4 12-5 14l19 10c1-1 2-4 5-15 1-2 2-5 3-8l152 0c14 38 21 82 21 126 0 88-41 145-71 188-4 4-8 10-11 15-9 12-7 37 1 48 5 7 13 14 20 19 13 10 20 16 20 27 0 25-24 45-55 45-31 0-54-20-54-45 0-10 6-15 18-26 7-5 15-13 21-20 8-11 11-37-1-49-16-19-30-38-40-57l-10-19-19 10 9 20c12 20 27 41 44 61 3 4 2 18-1 22-4 7-11 12-17 17-13 11-27 22-27 42 0 37 33 66 76 66 43 0 76-29 76-66 0-21-15-33-28-43-6-5-12-9-17-16-2-4-2-19 0-22 3-5 7-11 12-17 30-43 75-107 75-201 0-50-8-99-25-141z m-274 0c-91 0-165 74-165 163 0 90 74 163 165 163 90 0 164-73 164-163 0-89-74-163-164-163z m0 305c-79 0-143-64-143-142 0-78 64-142 143-142 79 0 143 64 143 142 0 78-64 142-143 142z m-54-96c-18 0-32 14-32 32 0 18 14 32 32 32 18 0 32-14 32-32 0-18-14-32-32-32z m0 43c-6 0-10-5-10-11 0-6 4-11 10-11 7 0 11 5 11 11 0 6-4 11-11 11z m68-27c-19 0-32 14-32 32 0 18 13 32 32 32 18 0 32-14 32-32 0-18-14-32-32-32z m0 43c-7 0-11-5-11-11 0-6 4-11 11-11 6 0 10 5 10 11 0 6-4 11-10 11z m-19-105c-16 0-29 14-29 30 0 16 13 30 29 30 16 0 30-14 30-30 0-16-14-30-30-30z m0 39c-4 0-8-5-8-9 0-4 4-8 8-8 5 0 9 4 9 8 0 4-4 9-9 9z"/>
<glyph unicode="&#37;" d="M353 480c31 0 61-11 85-32 26-21 40-51 42-83 1-29-9-57-28-77l-208-221c-21-22-52-35-85-35-31 0-61 11-85 32-26 21-40 51-42 83-1 28 9 56 28 77l208 221c21 22 52 35 85 35m0 21c-37 0-75-14-101-42l-207-221c-51-55-44-140 15-191 29-25 64-36 99-36 37 0 75 14 101 42l208 221c51 55 44 140-15 191-30 25-65 36-100 36z m16-218c-23 0-46 8-64 23-19 17-31 40-32 64-1 21 6 42 20 58 16 17 38 25 62 25 24 0 46-8 64-23 19-17 31-41 32-65 1-22-6-42-20-57-16-16-38-25-62-25z m-15 149c-18 0-34-6-46-19-10-12-16-26-15-42 1-18 10-36 25-49 14-12 32-19 50-19 18 0 34 6 46 19 11 11 16 26 15 41-1 18-10 36-25 50-14 13-32 19-50 19z m-239-330c-5 5-8 9-10 13-2 3-3 7-4 10 0 3 0 6 1 9 1 5 4 8 8 11 6 6 13 10 21 9 9 0 16-5 24-11 7-6 11-14 12-21 2-8-2-15-7-21-6-6-13-9-21-9-8 1-15 4-24 10z m9 10c5-5 10-7 16-7 5 0 9 1 13 4 3 3 4 7 4 12-1 4-4 9-10 14-5 6-10 8-15 8-4 0-8-1-13-5-3-4-4-8-4-12 0-4 3-10 9-14z m62 17l-48 43 12 14c6 5 9 8 11 9 3 2 6 2 11 2 4 0 7-2 11-6 4-2 6-5 7-9 1-3 1-5 1-7 0-2-1-4-2-6-1-3-4-6-8-10l-5-5 18-16z m-32 44l13-12 5 4c3 4 5 6 5 8 1 1 1 3 0 4 0 1-1 3-3 4-2 1-3 2-5 2-3 0-5 0-6-1-1-1-3-3-6-5z m70-4l-48 42 30 31 8-7-22-23 11-9 20 21 8-7-20-22 13-12 22 24 9-8z m38 38l-48 43 9 8 49-12-32 29 7 8 48-43-8-9-48 11 31-28z"/>
<glyph unicode="&#38;" d="M512 1l-512 0 0 154 79 0 308 357 125 0z m-491 21l470 0 0 469-93 0-308-358-69 0z m104-19l-17 15 311 361 82 0 0-22-71 0z m105 477l15-15-162-163-15 16z m-96-191l-80 0 0 80 22 0 0-59 58 0z"/>
<glyph unicode="&#39;" d="M512 0l-512 0 18 434 475 0z m-491 21l470 0-18 392-434 0z m235 175c-71 0-129 76-129 170l21 0c0-82 48-148 108-148 60 0 108 66 108 148l21 0c0-94-58-170-129-170z m221 224l-52 71-350 0-39-70-19 11 45 80 373 0 59-79z"/>
<glyph unicode="&#40;" d="M21 414l-21 0c0 22 14 43 33 47l233 51c8 2 17 0 24-5 9-7 13-18 13-31l0-37-21 0 0 37c0 6-3 11-6 14-1 1-3 2-6 1l-233-52c-8-2-16-13-16-25z m289-414l-265 0c-26 0-45 19-45 45l0 362c0 26 19 45 45 45l265 0c26 0 45-19 45-45l0-362c0-25-20-45-45-45z m-265 431c-14 0-24-10-24-24l0-362c0-14 10-24 24-24l265 0c13 0 24 11 24 24l0 362c0 14-10 24-24 24z m467-383l-178 0 0 351 178 0z m-157 21l136 0 0 309-136 0z m-184 54c-63 0-114 51-114 114 0 63 51 114 114 114 63 0 114-51 114-114 0-63-51-114-114-114z m0 207c-52 0-93-42-93-93 0-51 41-93 93-93 51 0 92 42 92 93 0 51-41 93-92 93z m0-207c-36 0-62 50-62 114 0 64 26 114 62 114 35 0 62-50 62-114 0-64-27-114-62-114z m0 207c-20 0-41-39-41-93 0-55 21-93 41-93 19 0 40 38 40 93 0 54-21 93-40 93z m-11 10l21 0 0-207-21 0z m-92-93l206 0 0-21-206 0z m277 89l99 0 0-21-99 0z m0-49l99 0 0-21-99 0z m0-156l99 0 0-21-99 0z"/>
<glyph unicode="&#41;" d="M299 0c-118 0-214 96-214 214 0 35 8 68 24 100 2 3 5 6 9 6l111 0c6 0 10-4 11-9l11-61 9 61c1 6 6 10 11 10l209 0c4 0 7-2 10-6 16-32 23-66 23-100-1-119-97-215-214-215z m-174 299c-13-28-18-56-18-85 0-106 86-193 192-193 105 0 192 87 192 193 0 29-7 57-18 85l-194 0-18-119c-1-5-5-8-10-9-6 0-10 4-11 8l-19 120z m232 0c-1 0-3 0-4 1-5 2-8 8-5 14 53 131 134 155 138 156 6 1 12-2 13-7 2-5-2-12-7-13-1 0-75-23-125-144-1-5-5-7-10-7z m-346 39c-4 0-7 1-9 4-3 5-3 10 1 14l107 112c2 2 4 3 6 3l152 22c4 1 9-2 11-8 2-5-1-10-5-12l-258-134c-2-1-3-1-5-1z m112 113l-61-63 146 76z m-6-1c-4 0-7 2-9 5l-22 41c-2 5-1 12 5 15 5 2 11 1 15-4l21-41c3-5 1-12-4-15-2-1-4-1-6-1z m76-150c-4 0-7 2-10 5l-53 106c-2 5 0 11 4 15 6 3 12 1 14-5l54-105c2-6 1-12-5-14-1-2-2-2-4-2z"/>
<glyph unicode="&#42;" d="M512 0l-512 0 0 431 512 0z m-491 21l470 0 0 389-470 0z m246-21l-167 0 0 121 167 0z m-145 21l123 0 0 78-123 0z m290-21l-167 0 0 121 167 0z m-145 21l123 0 0 78-123 0z m-142 269l-75 0 0 82 75 0z m-54 21l32 0 0 40-32 0z m165-21l-75 0 0 82 75 0z m-54 21l32 0 0 40-32 0z m165-21l-75 0 0 82 75 0z m-54 21l32 0 0 40-32 0z m165-21l-75 0 0 82 75 0z m-54 21l32 0 0 40-32 0z m-279-148l-75 0 0 82 75 0z m-54 22l32 0 0 39-32 0z m165-22l-75 0 0 82 75 0z m-54 22l32 0 0 39-32 0z m165-22l-75 0 0 82 75 0z m-54 22l32 0 0 39-32 0z m165-22l-75 0 0 82 75 0z m-54 22l32 0 0 39-32 0z m26 225l-348 0 0 102 348 0z m-327 21l306 0 0 60-306 0z m53 48l0-14 22 0 0 14 10 0 0-35-10 0 0 15-22 0 0-16-10 0 0 36z m90-18c0-12-10-19-25-19-15 0-25 7-25 18 0 10 11 19 26 19 15 0 24-8 24-18z m-39 0c0-8 5-13 15-13 9 0 15 5 15 13 0 6-6 13-15 13-11 0-15-6-15-13z m55 13l-15 0 0 5 41 0 0-5-15 0 0-30-10 0 0 30z m61-15l-20 0 0-11 22 0 0-5-32 0 0 36 31 0 0-5-21 0 0-10 20 0z m12 20l10 0 0-31 21 0 0-5-32 0 0 36z"/>
<glyph unicode="&#43;" d="M445 0l-378 0c-37 0-67 30-67 67l0 378c0 37 30 67 67 67l379 0c36 0 66-31 66-67l0-379c0-36-31-66-67-66z m-378 491c-24 0-46-22-46-46l0-378c0-24 22-46 46-46l378 0c24 0 46 21 46 45l0 379c0 24-21 46-45 46z m-56-224l490 0 0-22-490 0z m121 5l-45 0c-10 0-20 10-20 20l0 74c0 21 18 39 40 39l5 0c21 0 39-17 41-38l0-75c0-10-10-20-21-20z m-43 21l42 0 0 73c-1 9-9 18-19 18l-5 0c-11 0-18-7-18-18z m9 175l21 0 0-77-21 0z m144-196l-45 0c-10 0-20 10-20 20l0 74c0 21 18 39 40 39l6 0c21 0 39-18 39-39l0-74c0-10-9-20-20-20z m-44 21l43 0 0 73c0 11-7 18-18 18l-6 0c-11 0-19-7-19-18z m11 175l21 0 0-77-21 0z m143-196l-45 0c-10 0-20 10-20 20l0 74c0 21 18 39 39 39l7 0c21 0 39-18 39-39l0-74c0-10-9-20-20-20z m-44 21l43 0 0 73c0 11-8 18-18 18l-7 0c-10 0-18-7-18-18z m11 175l21 0 0-77-21 0z m-200-441l-44 0c-11 0-21 9-21 20l0 74c0 21 19 39 40 39l5 0c22 0 40-17 41-38l0-75c0-11-10-20-21-20z m-43 21l42 0 0 73c-1 9-9 18-19 18l-5 0c-11 0-18-8-18-18z m10 175l22 0 0-77-22 0z m139-196l-45 0c-10 0-20 9-20 20l0 74c0 21 18 39 39 39l7 0c21 0 39-18 39-39l0-74c0-11-9-20-20-20z m-44 21l43 0 0 73c0 10-7 18-18 18l-7 0c-10 0-18-8-18-18z m11 175l21 0 0-77-21 0z m140-196l-45 0c-11 0-20 9-20 20l0 74c0 21 18 39 39 39l7 0c21 0 39-18 39-39l0-74c0-11-10-20-20-20z m-44 21l43 0 0 73c0 9-9 18-18 18l-7 0c-11 0-18-8-18-18z m11 175l21 0 0-77-21 0z m138-196l-44 0c-11 0-21 9-21 20l0 74c0 21 18 39 40 39l6 0c21 0 40-18 40-39l0-74c0-11-10-20-21-20z m-43 21l42 0 0 73c0 10-7 18-18 18l-6 0c-11 0-18-8-18-18z m10 175l22 0 0-77-22 0z"/>
<glyph unicode="&#44;" d="M441 0l-370 0 0 73 31 0 0 121-31 0 0 73 370 0 0-73-31 0 0-121 31 0z m-348 21l326 0 0 30-31 0 0 164 31 0 0 30-326 0 0-30 31 0 0-164-31 0z m118 374c-32 0-58 26-58 58 0 32 26 59 58 59 32 0 59-27 59-59 0-32-27-58-59-58z m0 96c-20 0-37-17-37-38 0-20 17-37 37-37 20 0 38 17 38 37 0 21-18 38-38 38z m118-246l-236 0 0 11c0 70 53 128 118 128 30 0 59-12 81-34 24-25 38-59 37-94z m-215 22l192 0c-2 25-13 50-30 68-18 18-41 28-66 28-49 0-91-43-96-96z m286-11l-21 0 0 62-71 65 15 15 77-72z m-101 190l56-30-10-19-56 31z"/>
<glyph unicode="&#45;" d="M353 480c31 0 62-11 85-32 26-21 40-51 42-83 1-29-9-57-28-77l-208-221c-21-22-52-35-85-35-31 0-61 11-85 32-26 21-40 51-42 83-1 28 9 56 29 77l207 221c21 22 52 35 85 35m0 21c-37 0-75-14-101-42l-207-221c-51-55-44-140 15-191 29-25 64-36 99-36 37 0 75 14 101 42l208 221c51 55 44 140-15 191-30 25-65 36-100 36z m17-218c-23 0-46 8-64 23-19 17-31 40-32 64-1 21 7 42 20 58 16 17 38 25 62 25 24 0 46-8 64-23 19-17 31-41 32-65 1-22-6-42-20-57-16-16-38-25-62-25z m-15 149c-18 0-34-6-46-19-10-12-16-26-15-42 1-18 10-36 25-49 14-12 32-19 50-19 18 0 34 6 46 19 11 11 16 26 15 41-1 18-10 36-25 50-14 13-32 19-50 19z m-228-319l11 5c4-6 6-11 5-17 0-5-2-9-8-15-5-5-11-8-20-7-7 0-16 4-23 11-9 7-13 15-14 22-1 7 1 14 7 20 6 6 11 8 17 8 5 0 9-1 13-3l-6-11c0 1-3 2-7 2-3 0-5-1-7-4-3-3-4-7-3-11 1-4 4-8 9-14 7-5 12-8 16-8 5 0 9 1 11 4 2 2 3 5 3 8 0 3-1 6-4 10z m33 0l-48 43 9 8 39-36 20 21 9-7z m10 54c-6 5-9 9-11 13-1 3-2 7-3 10 0 3 0 6 1 9 1 5 3 8 7 11 7 7 13 10 22 9 8 0 16-5 23-11 8-6 12-14 13-21 1-8-2-15-8-21-6-6-12-9-21-9-8 1-16 4-23 10z m7 10c5-5 11-7 16-7 5 0 10 1 13 4 3 3 4 7 4 12-1 4-4 9-9 15-6 5-11 7-15 7-5 0-9-1-13-4-3-3-4-8-4-12 0-5 3-11 8-15z m45 29l7 9c4-2 8-3 10-3 3 0 5 1 8 5 4 3 5 5 5 7 0 2-1 4-2 6-1 1-3 1-5 3-1 0-3 0-5-2-1-1-4-2-9-5-5-3-10-5-13-5-6 0-10 1-14 4-2 2-5 5-6 8-1 3-1 6 0 9 1 3 4 7 7 10 5 5 10 8 16 8 5 0 10-1 15-5l-8-9c-3 3-5 3-7 3-2 0-4-2-7-5-2-2-3-5-4-7 0-1 0-3 2-4 1-2 2-2 5-2 2 0 5 3 10 6 6 3 10 5 13 6 3 1 6 1 10 0 3-1 6-2 9-5 3-2 4-5 6-9 1-3 1-7 0-10-2-4-4-8-8-11-5-5-11-9-16-9-7 0-14 3-19 7z m55 28l-48 42 30 31 9-7-23-23 11-9 20 21 9-7-20-22 12-11 23 23 8-7z"/>
<glyph unicode="&#46;" d="M150 189c-1 0-3 0-4 1l-140 65c-4 2-6 5-6 10 0 4 2 7 6 9l140 65c3 1 7 1 9 0l139-65c5-2 7-5 7-9 0-5-2-8-7-10l-139-65c-1-1-4-1-5-1z m-114 76l114-54 115 54-115 53z m114-265c-2 0-3 0-5 1l-140 80c-3 2-5 5-5 10l0 174c0 3 2 7 5 8 4 1 7 2 11 1l140-65c4-2 6-5 6-10l0-188c0-5-2-8-5-10-3-1-4-1-7-1z m-129 97l119-68 0 164-119 54z m129-97c-2 0-4 0-5 1-3 2-5 5-5 10l0 188c0 5 2 8 6 10l140 65c3 1 7 1 11-1 3-2 5-5 5-8l0-176c0-5-2-8-5-10l-140-78c-3-1-4-1-7-1z m11 193l0-164 118 66 0 152z m21 74c0 9-13 17-29 17-17 0-30-8-30-17 0-10 13-17 30-17 16 0 29 7 29 17z m-121-76c3-13 0-25-7-26-7-2-15 8-18 21-3 12 0 24 7 25 6 1 15-8 18-20z m60-27c3-13 0-24-7-25-7-2-15 7-18 20-3 13 0 24 6 26 7 1 15-9 19-21z m117 30c-3-13 0-24 6-25 8-3 15 7 18 20 4 13 0 24-6 25-7 1-15-7-18-20z m-30-56c-3-13 0-25 6-26 8-2 15 7 19 20 3 13 0 25-7 26-6 1-15-8-18-20z m-34-56c-3-13 0-24 6-25 8-3 15 7 18 20 4 13 0 24-6 25-6 1-15-7-18-20z m-113 35c3-12 0-24-7-25-7-2-15 7-18 20-3 13 0 25 7 26 6 1 15-8 18-21z m60-26c3-13 0-25-7-26-7-2-16 8-19 20-3 13 0 25 6 26 8 2 16-8 20-20z m106 206l-21 4 40 181c5 20 25 33 45 29l151-34c9-2 18-9 23-17 5-9 8-19 5-28l-9-41-20 6 9 40c1 5 0 9-2 12-2 4-6 6-10 8l-151 33c-9 2-17-4-19-13z m132-206c-5 0-11 1-17 3l-56 29 9 19 57-29c9-4 18-1 22 8l116 229c4 8 1 18-8 22l-137 70c-5 2-8 3-12 2-4-1-8-5-10-9l-76-150-19 9 76 151c4 9 12 16 22 19 10 3 20 2 28-3l137-70c18-8 25-30 17-50l-115-229c-7-14-20-21-34-21z m29 219c-7 5-17 5-23 0-1 9-7 15-15 20-14 6-30 1-36-12-12-25 1-44 13-82 39 13 62 15 74 37 6 14 1 31-13 37z m-53 92l-9-8-4 2 27 26 5-2-5-37-4 1 2 12z m12-2l1 11c0 2 1 4 1 6-1-2-3-3-4-5l-8-7z"/>
<glyph unicode="&#47;" d="M191 183c-3 0-5 2-8 4l-180 174c-3 3-4 7-2 11 2 5 5 7 10 7l360 0c4 0 9-2 10-7 2-4 1-8-2-11l-181-174c-2-2-4-4-7-4z m-154 174l154-148 154 148z m143-163l22 0 0-183-22 0z m-53-173l128 0 0-21-128 0z m-40 288l207 0 0-21-207 0z m284-71c-17 0-34 3-51 9-16 6-30 14-44 27l14 16c12-11 24-18 36-22 62-24 133 5 156 65 12 28 12 58-1 86-13 29-36 51-67 63-62 24-131-6-155-66-6-15-8-31-7-46l-22-1c-1 18 3 36 10 54 28 72 109 106 182 78 37-14 64-40 79-74 14-33 15-70 1-103-22-53-74-86-131-86z m35 251l20-8-45-109-20 8z m-124-33l96-72-13-17-96 72z m90-69l121-10-1-21-121 9z m9-8l36-113-21-7-35 113z m-361 106l130-180-18-12-129 180z"/>
<glyph unicode="&#58;" d="M317 0l-214 0c-56 0-103 47-103 103 0 54 39 98 91 104 4 62 54 112 116 112l2 0c64 0 115-48 120-111 51-5 91-49 91-103 0-58-47-105-103-105z m-110 298c-52 0-95-44-95-99l0-12-11 0c-43-1-80-39-80-84 0-44 38-82 82-82l214 0c45 0 82 38 82 84 0 44-36 82-81 82l-11 0 0 12c0 56-42 99-98 99z m114-93l0 21c8 0 14 0 21 1 26 3 49 17 65 38 16 21 24 48 21 74-8 56-58 93-113 86-26-4-49-18-65-38-16-21-24-48-21-74l-21-4c-4 33 4 65 23 91 20 26 48 42 79 46 68 8 128-37 137-105 4-33-4-65-24-90-19-26-48-42-78-46-8 0-16 0-24 0z m-6 298l5-37-21-3-5 37z m185-142l3-21-37-5-3 21z m-74 113l17-13-24-30-17 13z m18-222l30-24-13-17-30 24z m-249 189l30-23-13-17-29 23z"/>
<glyph unicode="&#59;" d="M372 73l-230 0c-32 0-59 26-59 58l0 66c0 91 74 165 164 165l21 0c90 0 164-74 164-165l0-66c0-32-28-58-60-58z m-125 267c-78 0-142-64-142-143l0-66c0-21 16-37 37-37l230 0c21 0 39 17 39 37l0 66c0 79-64 143-143 143z m121-15l-21 0c0 36-41 63-90 63-49 0-90-27-90-63l-21 0c0 47 50 85 111 85 61 0 111-38 111-85z m-122 104l22 0 0-30-22 0z m-157-303c-86 46-92 141-88 194 1 19 11 36 28 47 16 11 36 13 55 6l77-28-7-21-77 29c-13 4-26 3-36-4-11-7-18-18-18-31-4-59 6-136 77-174z m342 13l-19 8 77 157-18 20-67-53-13 17 83 66 40-46z"/>
<glyph unicode="&#60;" d="M149 67l-115 0-35 295 187 0z m-96 22l77 0 31 251-139 0z m108 167l-129 0c-6 0-11 4-11 11 0 6 5 10 11 10l129 0c6 0 11-4 11-10 0-7-5-11-11-11z m293-189l-191 0-73 111 331 0z m-180 22l168 0 40 68-253 0z m-168 173l-20 9 81 178 73-36-9-19-53 25z m235-106c-24 0-43 19-43 43 0 25 19 44 43 44 25 0 44-19 44-44 0-24-19-43-44-43z m0 66c-12 0-22-10-22-23 0-12 10-22 22-22 13 0 23 10 23 22 0 13-10 23-23 23z m11 11l-21 2c0 4 9 98 65 133l11-18c-46-30-55-116-55-117z"/>
<glyph unicode="&#61;" d="M500 0l-489 0c-7 0-11 4-11 11l0 167c0 33 28 61 61 61l389 0c33 0 61-28 61-61l0-167c0-7-4-11-11-11z m-479 21l469 0 0 157c0 21-19 40-40 40l-389 0c-22 0-40-19-40-40z m410 197l-350 0c-6 0-11 4-11 10l0 106c0 33 28 61 61 61l250 0c33 0 61-28 61-61l0-106c0-6-5-10-11-10z m-339 21l328 0 0 95c0 21-18 39-39 39l-250 0c-21 0-39-18-39-39z m196 262l21 0 0-117-21 0z m-86 0l21 0 0-117-21 0z m-150-415c-29 0-52 22-52 46l21 0c0-13 15-24 31-24 16 0 30 11 30 24l21 0c0-25-23-46-51-46z m81 0c-27 0-51 21-51 46l21 0c0-13 14-24 30-24 16 0 30 11 30 24l22 0c0-25-24-46-52-46z m82 0c-27 0-51 21-51 46l22 0c0-13 13-24 29-24 16 0 30 11 30 24l22 0c0-25-24-46-52-46z m83 0c-29 0-53 22-53 46l22 0c0-13 15-24 31-24 16 0 29 11 29 24l22 0c0-25-24-46-51-46z m81 0c-28 0-52 21-52 46l22 0c0-13 14-24 30-24 16 0 30 11 30 24l21 0c0-25-24-46-51-46z m82 0c-28 0-51 21-51 46l21 0c0-13 14-24 30-24 16 0 30 11 30 24l21 0c0-25-23-46-51-46z m-379 115l21 0 0-36-21 0z m81 0l22 0 0-36-22 0z m82 0l22 0 0-36-22 0z m82 0l22 0 0-36-22 0z m82 0l21 0 0-36-21 0z m-297 70c-21 0-39 16-39 36l21 0c0-8 8-15 18-15 10 0 18 7 18 15l21 0c0-20-18-36-39-36z m58 0c-22 0-40 16-40 36l21 0c0-8 9-15 19-15 9 0 18 7 18 15l21 0c0-20-18-36-39-36z m57 0c-21 0-39 16-39 36l21 0c0-8 9-15 18-15 10 0 18 7 18 15l22 0c0-20-18-36-40-36z m58 0c-22 0-40 16-40 36l22 0c0-8 8-15 18-15 9 0 18 7 18 15l21 0c0-20-18-36-39-36z m57 0c-21 0-39 16-39 36l21 0c0-8 9-15 18-15 10 0 19 7 19 15l21 0c0-20-18-36-40-36z m58 0c-21 0-39 16-39 36l21 0c0-8 8-15 18-15 10 0 18 7 18 15l21 0c0-20-18-36-39-36z m-270 83l21 0 0-24-21 0z m58 0l21 0 0-24-21 0z m57 0l22 0 0-24-22 0z m58 0l21 0 0-24-21 0z m58 0l21 0 0-24-21 0z"/>
<glyph unicode="&#62;" d="M411 75c-56 0-102 46-102 101 0 55 46 101 102 101 55 0 101-46 101-101 0-55-46-101-101-101z m0 181c-44 0-80-36-80-80 0-44 36-80 80-80 43 0 80 36 80 80 0 44-37 80-80 80z m-310-181c-55 0-101 46-101 101 0 55 46 101 101 101 56 0 102-46 102-101 0-55-46-101-102-101z m0 181c-43 0-80-36-80-80 0-44 37-80 80-80 44 0 80 36 80 80 0 44-36 80-80 80z m1-91c-2 0-5 1-7 2-4 5-5 11-1 15 0 0 48 58 54 217 0 6 6 11 11 11 6 0 11-6 11-11-7-168-57-227-59-229-2-4-5-5-9-5z m309 0l-150 0c-3 0-6 2-8 5l-104 150c-2 3-2 7-1 11 1 3 6 5 10 5l165 0c4 0 8-2 10-5l86-149c2-2 2-4 2-7 0-5-4-10-10-10z m-144 22l124 0-74 129-139 0z m-10-22c-1 0-3 0-4 1-6 3-8 9-6 14l80 184c3 5 9 7 14 5 6-2 8-8 6-14l-80-183c-1-5-6-7-10-7z m110 188l-60 0c-6 0-10 4-10 11 0 6 4 10 10 10l60 0c6 0 11-4 11-10 0-7-5-11-11-11z m-171 16c-17 0-40 6-47 30-4 13 0 21 4 27 8 11 26 11 28 11 7 0 11-4 11-10 0-7-4-11-11-11-3 0-9-1-11-4-1-2-1-6 0-8 5-17 32-14 32-14 5 1 10-3 11-9 1-7-3-11-9-12-2 0-5 0-8 0z"/>
<glyph unicode="&#63;" d="M158 194l209 0 0-21-209 0z m304-22l0 21c8 0 30 2 30 20l0 36c0 7-6 14-12 18-46 23-75 62-91 90-3 7-10 11-17 11l-144 0c-8 0-16-5-19-13l-17-47c-4-11-14-21-27-25l-127-39c-7-2-12-7-13-14l-3-11c-1-7 0-13 5-17 4-6 9-8 16-8l21 0 0-21-22 0c-13 0-25 5-32 16-8 9-11 22-9 35l2 11c3 15 14 26 29 31l127 37c6 2 11 6 13 13l17 47c5 16 21 27 38 27l143 0c15 0 29-8 36-21 12-21 39-60 83-82 14-8 23-22 23-37l0-37c1-19-13-41-50-41z m-351-49c-32 0-58 25-58 57 0 32 26 58 58 58 32 0 58-26 58-58 0-32-26-57-58-57z m0 94c-20 0-36-16-36-37 0-20 16-36 36-36 20 0 36 16 36 36 0 21-16 37-36 37z m303-94c-32 0-58 25-58 57 0 32 26 58 58 58 32 0 57-26 57-58 0-32-25-57-57-57z m0 94c-20 0-36-16-36-37 0-20 16-36 36-36 20 0 36 16 36 36 0 21-16 37-36 37z m-243 91l276 0 0-21-276 0z m116 67l21 0 0-74-21 0z"/>
<glyph unicode="&#64;" d="M409 149l-127 0c-57 0-104 47-104 104l0 10 334 0 0-10c0-57-47-104-103-104z m-208 93c5-40 39-71 81-71l127 0c41 0 75 31 81 71z m-186 80l178-80-8-20-178 80z m184-196l292 0 0-21-292 0z m183 230l21 0 0-61-21 0z m-48 41l21 0 0-102-21 0z m-47-41l21 0 0-61-21 0z"/>
<glyph unicode="&#91;" d="M5 283l502 0 0-22-502 0z m276 6l-48 0c-13 0-23 10-23 22l0 107c0 13 10 23 23 23l48 0c12 0 22-10 22-23l0-109c-2-11-12-20-22-20z m-48 130c0 0-2-1 0 0l-2-108c0 0 2-1 2-1l48 0c0 0 1 1 1 3l0 105c0 0-1 1-1 1z m12 82l22 0 0-71-22 0z m-82-212l-48 0c-13 0-22 10-22 22l0 92c0 13 9 23 22 23l48 0c13 0 23-10 23-23l0-92c0-12-10-22-23-22z m-48 115c0 0-1-1-1-1l0-92c0 0 1-1 1-1l48 0c0 0 1 1 1 1l0 92c0 0-1 1-1 1z m282-115l-48 0c-13 0-23 10-23 22l0 70c0 13 10 22 23 22l48 0c13 0 22-9 22-22l0-72c-2-11-12-20-22-20z m-48 93c0 0-1-1-1-1l0-70c0 0 1-1 1-1l48 0c0 0 1 1 1 3l0 68c0 0-1 1-1 1z m-220 66l21 0 0-33-21 0z m-124-427l502 0 0-21-502 0z m392 7l-48 0c-13 0-23 9-23 22l0 107c0 13 10 22 23 22l48 0c13 0 22-9 22-22l0-108c-2-13-10-21-22-21z m-48 130c0 0-1-1-1-1l0-107c0 0 1-1 1-1l48 0c0 0 0 1 1 2l0 106c0 0-1 1-1 1z m13 82l21 0 0-73-21 0z m-199-212l-48 0c-13 0-22 9-22 22l0 69c0 13 9 23 22 23l48 0c13 0 23-10 23-23l0-69c0-13-10-22-23-22z m-48 93c0 0-1-2 0 0l-1-71c0 0 1-1 1-1l48 0c1 0 1 0 1 0l0 70c0 0-1 2-1 2z m166-93l-48 0c-13 0-23 9-23 22l0 92c0 13 10 22 23 22l48 0c12 0 22-9 22-22l0-93c-2-13-11-21-22-21z m-48 115c0 0-2-1-2-1l0-92c0 0 2-1 2-1l48 0c0 0 0 1 1 2l0 91c0 0-1 1-1 1z m12 44l22 0 0-34-22 0z"/>
<glyph unicode="&#93;" d="M427 67l-342 0c-21 0-37 16-37 38l0 334c0 40 33 73 73 73l269 0c41 0 73-33 73-73l0-334c1-10-2-19-10-26-6-8-16-12-26-12z m-306 424c-28 0-52-24-52-52l0-334c0-9 8-16 16-16l342 0c4 0 8 2 11 4 3 2 5 5 4 10l0 336c0 28-24 52-52 52z m-62-250l394 0 0-21-394 0z m161 223l72 0 0-21-72 0z m-113-318l40 0 0-21-40 0z m258 0l40 0 0-21-40 0z m-365 260l21 0 0-88-21 0z m491 0l21 0 0-88-21 0z m-377-328l21 0 0-67-21 0z m263 0l21 0 0-67-21 0z"/>
<glyph unicode="&#94;" d="M256 0c-141 0-256 115-256 256 0 141 115 256 256 256 141 0 256-115 256-256 0-141-115-256-256-256z m0 491c-129 0-235-106-235-235 0-129 106-235 235-235 129 0 235 106 235 235 0 129-106 235-235 235z m-191-235l-21 0c0 117 95 212 212 212l0-21c-106 0-191-85-191-191z m50 0l-21 0c0 90 72 162 162 162l0-21c-78 0-141-63-141-141z m141-109c-60 0-109 49-109 109 0 60 49 109 109 109 60 0 109-49 109-109 0-60-49-109-109-109z m0 196c-48 0-87-39-87-87 0-48 39-87 87-87 48 0 87 39 87 87 0 48-39 87-87 87z m0-120c-18 0-33 15-33 33 0 18 15 33 33 33 18 0 33-15 33-33 0-18-15-33-33-33z m0 45c-6 0-12-6-12-12 0-6 6-12 12-12 6 0 12 6 12 12 0 6-6 12-12 12z m147-161l-19 10 49 94-75 287 22 7 77-296z m-31 79l19-11-25-44-19 10z"/>
<glyph unicode="&#95;" d="M165 157l204 0 0-22-204 0z m317-22l-23 0 0 22 23 0c4 0 9 4 9 8l0 97c0 5-4 7-6 8l-34 14c-3 2-8 5-12 10l-69 107c-1 2-4 3-7 3l-333 0c-4 0-9-4-9-8l0-231c0-4 5-8 9-8l41 0 0-22-41 0c-16 0-30 14-30 30l0 231c0 16 14 30 30 30l334 0c10 0 20-6 25-14l70-107c1-1 2-2 4-4l31-13c12-5 18-15 18-27l0-97c0-15-14-29-30-29z m-199 153l-241 0 0 100 241 0z m-220 21l198 0 0 58-198 0z m351-21l-116 0 0 100 67 0z m-95 21l61 0-28 58-33 0z m-203-223c-33 0-59 27-59 60 0 33 26 60 59 60 33 0 60-27 60-60 0-33-27-60-60-60z m0 99c-21 0-38-18-38-39 0-21 17-38 38-38 22 0 39 17 39 38 0 21-17 39-39 39z m298-99c-33 0-60 27-60 60 0 33 27 60 60 60 33 0 60-27 60-60 0-33-27-60-60-60z m0 99c-21 0-39-18-39-39 0-21 18-38 39-38 21 0 38 17 38 38 0 21-17 39-38 39z"/>
<glyph unicode="&#96;" d="M176 68l-176 0 0 70 23 26 0 157-21 15 0 67 172 0 0-67-21-15 0-157 23-26z m-155 22l134 0 0 39-24 27 0 176 22 15 0 35-130 0 0-35 22-15 0-176-24-27z m491-22l-176 0 0 70 23 26 0 157-21 15 0 67 172 0 0-67-21-15 0-157 23-26z m-155 22l134 0 0 39-24 27 0 176 22 15 0 35-130 0 0-35 22-15 0-176-24-27z m-215 227l228 0 0-22-228 0z m189-250l-150 0 0 112c0 42 33 75 75 75 42 0 75-33 75-75z m-128 22l106 0 0 90c0 30-23 54-53 54-30 0-53-24-53-54z m-38 1l182 0 0-22-182 0z m-163 343l21 0 0-46-21 0z m151 0l21 0 0-46-21 0z m-76 0l21 0 0-46-21 0z m261 0l21 0 0-46-21 0z m151 0l21 0 0-46-21 0z m-75 0l21 0 0-46-21 0z"/>
<glyph unicode="&#123;" d="M512 1l-512 0 0 511 125 0 308-357 79 0z m-491 21l470 0 0 111-69 0-308 358-93 0z m366-19l-305 354-71 0 0 22 82 0 311-361z m57 287c-2 1-3 2-166 163l15 15c62-62 156-155 161-160l-6-7z m-159 112l-22 0 0 81 82 0 0-21-60 0z"/>
<glyph unicode="&#124;" d="M355 35l-154 0 0 24c-6 3-13 8-20 14-36 0-136 10-150 108-6 50-21 76-28 86l-2 2 0 5c0 4 3 9 4 10l1 1 48 22 6-5c2-1 17-16 29-64 3-13 8-18 14-20 0 3 0 6 0 9 0 34 9 67 25 96l3 6 294 0 3-6c16-29 24-62 24-96 0-57-52-122-96-167l0-25z m-133 22l112 0 0 6c-1 5 3 8 6 12 58 58 90 113 90 152 0 28-7 56-19 80l-268 0c-13-24-19-52-19-80 0-3 0-7 1-10 0-4 0-8 0-11l0-9-9-2c0 0-2 0-6 0-8 0-34 3-43 39-6 26-14 40-18 48l-23-11c8-15 20-43 26-86 12-85 105-91 133-91l3 0 3-2c10-8 26-17 26-17l5-4z m211 53c-4 0-7 0-12 1-12 3-23 10-32 18l16 14c5-5 12-10 21-12 25-5 52 19 59 55l5 21c6 35-10 68-36 74-6 1-12 1-19-2l-5 21c11 3 21 3 30 1 37-8 59-51 51-98l-4-22c-9-41-41-71-74-71z m-19 241l-276 0 10 16c22 33 55 58 93 66 0 2-1 4-1 5 0 20 17 37 36 37 19 0 37-17 37-37 0-2 0-4 0-5 38-10 71-33 91-66z m-236 21l196 0c-19 23-47 39-77 43l-18 3 11 14c1 2 2 3 2 7 0 8-7 15-15 15-7 0-15-7-15-15 0-3 1-6 3-7l9-14-16-2c-32-5-60-21-80-44z"/>
<glyph unicode="&#125;" d="M410 81l-38 0c-56 0-102 46-102 102l0 112 242 0 0-112c0-56-46-102-102-102z m-119 193l0-91c0-44 36-81 81-81l38 0c43 0 81 38 81 81l0 91z m89-182l21 0 0-81-21 0z m-40-71l101 0 0-21-101 0z m-186-21l-80 0c-54 0-74 279-74 283l0 41c0 35 33 63 74 63l0 125 80 0 0-125c40 0 73-28 73-63l0-41c0-4-20-283-73-283z m-80 366c-29 0-53-18-53-42l0-41c0-42 29-250 54-262l79 0c23 13 53 220 53 262l0 41c0 24-24 42-52 42l-22 0 0 125-38 0 0-125z m51-242l-95 0 0 21 73 0 0 146-92 0 0 22 114 0z"/>
<glyph unicode="&#126;" d="M338 146c-22 0-43 12-55 30-8-3-16-5-25-5-19 0-37 9-48 24-5-1-11-2-16-2-38 0-69 30-69 68 0 23 10 43 29 56-4 8-6 17-6 25 0 31 23 57 51 63 3 31 29 55 60 55 2 0 4 0 7 0 4 26 27 46 55 46 31 0 56-24 57-54 2 0 4 0 6 0 28 0 51-19 55-46 38 0 67-28 67-66 0-17-8-34-19-46 8-11 12-25 12-39 0-42-34-76-77-76-9 0-18 2-24 4-11-22-34-37-60-37z m-47 62l6-13c7-16 23-28 41-28 20 0 37 14 43 34l3 11 12-5c7-3 16-6 26-6 31 0 56 24 56 54 0 13-5 26-13 34l-8 10 10 6c11 8 18 21 18 35 0 26-19 45-44 45-3 0-5 0-7 0l-14-4 0 16c0 20-15 35-35 35-5 0-8-1-15-2l-20-7 6 21c0 1 0 5 0 7 0 20-16 35-35 35-19 0-35-17-35-37l0-19-15 5c-4 2-8 3-12 3-21 0-38-17-38-38l0-15-11 0c-23-1-40-19-40-43 0-8 2-17 6-24l6-10-10-5c-16-9-26-25-26-42 0-26 21-47 48-47 7 0 12 1 17 4l10 4 4-10c6-13 18-20 33-20 9 0 16 2 23 7z m34-191l-21 0 0 83-59 76 17 13 63-82z m46 164l16-14-64-70-16 14z m-354-100l244 0 0-21-244 0z m48-18l21 0 0-46-21 0z m127 0l21 0 0-46-21 0z"/>
<glyph unicode="&#92;" d="M256-2l-73 25 8 21 60-22c31 33 76 86 123 156 91 137 126 242 115 276-3 7-6 9-8 9-34 12-145-84-250-240l-9-15c-10-15-19-29-27-44l-18 11c9 15 17 29 28 45l9 15c90 135 216 267 273 248 8-2 16-8 22-22 16-47-31-166-118-295-39-59-85-116-131-163z m-78 2l-157 0-2 9c-13 55-19 121-19 189 0 153 35 314 99 314 64 0 99-161 100-314 0-58-4-114-12-160-2-10-5-20-7-29z m-140 21l123 0c1 7 3 14 4 22 9 43 13 98 13 155-1 172-43 293-79 293-37 0-78-121-78-293 0-64 7-124 17-177z m433 449l18-12-293-423-17 12z"/>
<glyph unicode="&#57344;" d="M48 395l21 0 0-283-21 0z m395 0l21 0 0-283-21 0z m-432 16l490 0 0-22-490 0z m452-113l-210 0 0 112 210 0z m-189 21l168 0 0 69-168 0z m189-111l-210 0 0 112 210 0z m-189 21l168 0 0 70-168 0z m63 136l43 0 0-22-43 0z m0-91l43 0 0-21-43 0z"/>
<glyph unicode="&#57345;" d="M410 281l-308 0 46 135 216 0z m-278 21l248 0-31 93-186 0z m311-133l-374 0 12 133 350 0z m-350 21l326 0-7 91-312 0z m61 8c-21 0-37 16-37 37 0 20 16 36 37 36 20 0 36-16 36-36 0-21-16-37-36-37z m0 52c-9 0-15-7-15-15 0-9 6-15 15-15 8 0 15 6 15 15 0 8-7 15-15 15z m204-52c-20 0-36 16-36 37 0 20 16 36 36 36 21 0 37-16 37-36 0-21-16-37-37-37z m0 52c-8 0-15-7-15-15 0-9 7-15 15-15 9 0 15 6 15 15 0 8-6 15-15 15z m-246-92l21 0 0-51-21 0z m267 0l21 0 0-51-21 0z m-123-158c-141 0-256 115-256 256 0 23 2 45 7 64l21-5c-5-18-7-38-7-59 0-129 106-235 235-235 129 0 235 106 235 235 0 129-106 235-235 235-34 0-69-8-101-23l-9 19c34 16 73 25 110 25 141 0 256-115 256-256 0-141-115-256-256-256z m-230 339l0 150 49 0c18 0 30-2 36-3 8-2 16-7 21-15 6-7 9-17 9-28 0-10-2-17-6-24-3-6-7-10-12-15-6-3-11-6-16-7-8-1-18-2-31-2l-19 0 0-57z m31 125l0-43 17 0c11 0 20 1 23 2 4 2 8 5 10 8 2 3 3 7 3 12 0 5-1 9-4 14-5 3-9 5-13 6-3 1-11 1-22 1z"/>
<glyph unicode="&#57346;" d="M512 46l-315 0 0 256 315 0z m-293 21l272 0 0 214-272 0z m126-10l21 0 0-41-21 0z m-71-36l162 0 0-21-162 0z m-88-21l-186 0 0 512 186 0z m-165 21l143 0 0 470-143 0z m-9 397l163 0 0-21-163 0z m33-79l96 0 0-21-96 0z m0-56l96 0 0-22-96 0z m0-56l96 0 0-21-96 0z m0-56l96 0 0-22-96 0z m33-79l30 0 0-22-30 0z"/>
<glyph unicode="&#57347;" d="M30 381l21 0 0-308-21 0z m11-12c-23 0-41 18-41 41 0 22 18 40 41 40 22 0 40-18 40-40 0-23-18-41-40-41z m0 60c-11 0-20-9-20-19 0-11 9-20 20-20 10 0 19 9 19 20 0 10-9 19-19 19z m420-48l21 0 0-308-21 0z m10-12c-22 0-40 18-40 41 0 22 18 40 40 40 23 0 41-18 41-40 0-23-18-41-41-41z m0 60c-10 0-19-9-19-19 0-11 9-20 19-20 11 0 20 9 20 20 0 10-9 19-20 19z m-213-179c-131 0-224 96-225 97l16 15c8-9 195-202 416 1l15-16c-80-73-156-97-222-97z m-110 92l22 0 0-138-22 0z m11-10c-14 0-25 10-25 24 0 14 11 25 25 25 14 0 24-11 24-25 0-14-10-24-24-24z m0 27c-2 0-3-1-3-3 0-2 1-3 3-3 2 0 3 1 3 3 0 2-1 3-3 3z m183-17l22 0 0-138-22 0z m11-10c-14 0-24 10-24 24 0 14 10 25 24 25 14 0 25-11 25-25 0-14-11-24-25-24z m0 27c-2 0-3-1-3-3 0-2 1-3 3-3 2 0 3 1 3 3 0 2-1 3-3 3z m-97-81c-62 0-105 45-106 46l16 15-7-8 7 7c4-3 85-86 179 0l14-16c-37-33-72-44-103-44z m210-192l-421 0 177 126 77 0z m-355 22l291 0-111 83-62 0z"/>
<glyph unicode="&#57348;" d="M501 166l-312 0c-4 0-9 4-11 8l-81 275-86 0 0 21 94 0c4 0 8-3 10-7l82-275 304 0z m-246-124c-32 0-58 25-58 57 0 32 26 58 58 58 32 0 58-26 58-58 0-32-26-57-58-57z m0 93c-20 0-36-16-36-36 0-20 16-36 36-36 20 0 36 16 36 36 0 20-16 36-36 36z m181-93c-32 0-57 25-57 57 0 32 25 58 57 58 32 0 58-26 58-58 0-32-26-57-58-57z m0 93c-20 0-36-16-36-36 0-20 16-36 36-36 21 0 37 16 37 36 0 20-16 36-37 36z m21 73l-217 0c-21 0-37 16-37 37l0 136c0 21 16 37 37 37l217 0c21 0 37-16 37-37l0-136c0-21-16-37-37-37z m-217 189c-9 0-16-8-16-16l0-136c0-8 7-16 16-16l217 0c8 0 16 8 16 16l0 136c0 8-8 16-16 16z m178 10l-21 0 0 29-96 0 0-29-22 0 0 40c0 6 5 11 11 11l117 0c7 0 11-5 11-11z m-163-30l21 0 0-124-21 0z m163 0l21 0 0-124-21 0z"/>
<glyph unicode="&#57349;" d="M438 233c-3 0-6 0-8 1-9 2-16 8-20 18-11 20-11 53 0 86 12 46 40 78 66 78 3 0 6 0 8-1 27-9 35-53 22-105-14-45-42-77-68-77z m38 162c-12 0-34-23-46-62-10-32-8-59-1-71 2-4 5-6 8-7 1 0 2 0 2 0 12 0 35 22 46 62 13 44 5 74-6 79-2-1-2-1-3-1z m-26-112c-2 0-3 0-4 1-5 1-10 4-12 9-5 10-5 24-1 40 5 17 17 34 32 34 2 0 3 0 4-1 4-1 9-3 12-10 5-9 5-24 1-38-5-18-18-35-32-35z m13 60c-2-2-6-8-10-18-3-9-2-17-2-20 3 2 8 9 11 18 2 10 2 16 1 20z m-291 59l-21 5c26 102 91 105 94 105 1 0 2 0 4 0l244-68-6-21-243 68c-8-1-52-11-72-89z m226-63l-20 7c1 4 37 115 115 98l-4-22c-60 13-91-82-91-83z m-297-339l-101 0 0 221 101 0 0-80 150 33 4-21-175-38 0 84-59 0 0-178 59 0 0 70 171 37 4-21-154-33z m199 100l-59 0 0 108-18 5 0 61-46 13c-3 1-46 18-32 102l2 12 248-69-1-10c-4-18-7-72 17-79l-6-20-85 23 0-64-20 7z m-38 22l16 0 0 97 21-7 0 62 76-21c-7 21-6 49-4 63l-207 57c-5-52 16-65 19-67l61-17 0-61 18-5z"/>
<glyph unicode="&#57350;" d="M195 0l-138 0c-31 0-57 26-57 58 0 32 25 57 57 57l76 0 201 355 121 0c31 0 57-25 57-57 0-32-25-58-57-58l-59 0z m-138 94c-21 0-36-16-36-36 0-21 16-37 36-37l125 0 201 356 72 0c21 0 36 16 36 36 0 20-16 36-36 36l-108 0-201-355z m46 307c-30 0-55 25-55 56 0 30 25 55 55 55 31 0 56-25 56-55 0-31-25-56-56-56z m0 90c-19 0-34-15-34-34 0-20 15-35 34-35 20 0 35 15 35 35 0 19-15 34-35 34z m26-331l-81 0 0 183c0 23 18 41 41 41l32 0c3 0 8 0 12-2l1 0 111-50-33-49-54 23 0-96z m-60 21l47 0 21 36 0 122 67-30 9 13-87 41c-1 0-3 0-5 0l-32 0c-10 0-20-10-20-20z"/>
<glyph unicode="&#57351;" d="M478 9l-430 0c-19 0-33 12-33 30l0 104 21 0 0-104c0-6 7-9 12-9l430 0c6 0 12 5 12 9l0 292c0 6-7 9-12 9l-430 0c-6 0-12-5-12-9l0-103-21 0 0 103c0 16 15 31 33 31l430 0c19 0 33-13 33-31l0-292c0-16-15-30-33-30z m-311 117l-167 0 0 119 167 0z m-146 21l125 0 0 77-125 0z m79 11c-15 0-27 13-27 28 0 15 12 27 27 27 15 0 28-12 28-27 0-15-13-28-28-28z m0 34c-3 0-6-3-6-6 0-4 3-7 6-7 3 0 7 3 7 7 0 3-4 6-7 6z m342 150l-15 15 19 22-103 96-120-129-15 15 135 144 133-126z m-361 7l-15 15 135 143 84-80-15-15-69 65z"/>
<glyph unicode="&#57352;" d="M302 0l-183 0c-30 0-55 25-55 55l0 302 292 0 0-303c1-13-4-26-15-37-9-11-24-17-39-17z m-217 336l0-281c0-18 16-34 34-34l183 0c9 0 18 5 24 11 7 6 9 14 9 22l0 282z m319-186l-68 0 0 169 68 0c24 0 43-19 43-43l0-83c0-23-19-43-43-43z m-47 22l47 0c12 0 22 9 22 21l0 83c0 12-10 22-22 22l-47 0z m-224 286l22 0 0-84-22 0z m68 43l21 0 0-127-21 0z m66-43l21 0 0-84-21 0z m-101-111l22 0 0-112-22 0z m74-260l-127 0 0 135 63 44 64-44z m-106 22l85 0 0 102-43 29-42-29z"/>
<glyph unicode="&#57353;" d="M478 39l-444 0c-19 0-34 15-34 35l0 297c0 19 15 34 34 34l444 0c19 0 34-15 34-34l0-297c0-20-15-35-34-35z m-444 345c-7 0-13-5-13-13l0-297c0-8 6-13 13-13l444 0c7 0 13 5 13 13l0 297c0 8-6 13-13 13z m329 11l-22 0 0 56-170 0 0-56-22 0 0 78 214 0z m-191-162l168 0 0-22-168 0z m73 73l22 0 0-167-22 0z m11-208c-68 0-124 56-124 124 0 68 56 124 124 124 68 0 124-56 124-124 0-68-56-124-124-124z m0 226c-57 0-102-46-102-102 0-57 45-103 102-103 57 0 102 46 102 103 0 56-45 102-102 102z"/>
<glyph unicode="&#57354;" d="M334 166l-13 17c44 34 72 104 73 183l-246 0c1-47 11-91 30-127l-19-10c-21 41-32 91-32 144l0 15 288 0 0-15c0-89-31-168-81-207z m63 48c-3 0-6 0-9 1-7 2-15 8-20 15l18 11c2-3 5-5 7-5 14-5 40 21 50 54 7 28 0 50-20 55-4 1-11 2-17-2l-8 20c9 4 20 4 31 2 25-8 47-35 34-81-10-34-38-70-66-70z m-97 249l21 0 0-58-21 0z m-40 38l22 0 0-96-22 0z m-39-38l21 0 0-58-21 0z m104-463c-6 0-11 2-17 5-9 6-20 13-31 21-25 19-55 40-79 48-31 11-63 13-91 15-14 1-27 1-38 3-9 1-18 6-22 15-5 10-5 23 0 36 15 34 58 79 114 94 29 7 58 7 86 0 3-1 143-46 110-209-1-15-16-28-32-28z m-119 223c-13 0-26-2-37-5-48-13-87-52-101-83-4-6-4-12-2-17 1-2 4-4 8-4 9-2 21-2 35-3 29-2 64-4 97-17 25-9 56-31 83-51 11-8 20-15 30-21 2-1 3-2 5-2 6 0 12 6 14 13 29 145-89 182-95 185-12 3-24 5-37 5z m-70-10l14-112-21-2-14 111z m205-78l13-17-91-71-13 17z"/>
<glyph unicode="&#57355;" d="M314 346c-22 0-40 18-40 39 0 21 18 40 40 40 21 0 39-19 39-40 0-21-18-39-39-39z m0 57c-10 0-19-8-19-18 0-10 9-18 19-18 9 0 18 8 18 18 0 10-9 18-18 18z m-5-403l-170 0-49 193 268 0z m-153 21l136 0 39 151-214 0z m54 154c-1 4-15 104 37 144l13-17c-42-32-29-124-29-125z m-32 42c-20 0-39 5-54 16-46 29-47 71-48 93l-1 22 16-9c12-6 23-9 34-10 66-4 102-42 106-76l-21-3c-3 25-32 54-87 56-9 1-17 2-27 5 2-20 9-43 37-62 21-14 52-16 79-6l8-20c-13-3-28-6-42-6z m123 41c-3 0-7 0-10 1-23 3-42 23-47 46-24 0-45 15-52 38-9 26 1 53 22 67-5 9-7 19-7 29 1 15 7 29 18 39 15 14 36 18 57 13 11 16 33 24 54 21 23-3 43-22 47-46 24 0 45-15 52-38 9-26-1-53-22-66 12-22 8-51-11-69-11-9-24-15-39-15-6 0-12 1-17 3-11-14-27-23-45-23z m-34 72l-1-14c-1-18 11-33 28-37 3 0 5 0 7 0 14 0 25 8 31 19l4 9 10-4c5-2 10-4 17-4 9 0 18 3 24 9 14 13 15 35 2 49l-10 12 15 5c18 7 27 27 21 45-5 17-22 27-41 23l-12-3 1 14c1 18-12 33-29 37-2 0-4 0-7 0-13 0-25-8-30-19l-5-9-9 4c-14 7-30 4-42-5-6-7-11-14-12-24 0-9 4-18 10-25l11-12-15-5c-18-7-28-27-22-45 6-17 23-27 41-23z"/>
<glyph unicode="&#57356;" d="M512 97l-381 0 0 271 96 0 0-21-74 0 0-229 338 0 0 229-61 0 0 21 82 0z m-439 9l-20 0c-30 0-53 23-53 53l0 210c0 30 23 53 53 53l20 0c29 0 53-23 53-53l0-210c0-30-24-53-53-53z m-20 295c-18 0-32-14-32-32l0-210c0-18 14-32 32-32l20 0c18 0 32 14 32 32l0 210c0 18-14 32-32 32z m384-98l-227 0 2 13c12 58-1 122-36 180l-10 16 231 0 3-5c37-62 51-132 38-196z m-201 21l184 0c8 55-4 113-35 167l-181 0c27-54 39-112 32-167z m-27-63l34 0 0-21-34 0z m57 0l34 0 0-21-34 0z m57 0l34 0 0-21-34 0z m57 0l34 0 0-21-34 0z m-171-44l34 0 0-22-34 0z m57 0l34 0 0-22-34 0z m57 0l34 0 0-22-34 0z m57 0l34 0 0-22-34 0z m-171-44l34 0 0-22-34 0z m57 0l34 0 0-22-34 0z m57 0l34 0 0-22-34 0z m57 0l34 0 0-22-34 0z m66 69l21 0 0-80-21 0z m-210 228l141 0 0-21-141 0z m20-49l141 0 0-21-141 0z m4-49l140 0 0-21-140 0z m37-371c-13 0-24 6-34 12-9 5-17 9-25 8-4-1-9-2-14-4-7-3-16-6-28-6-16 0-27 3-40 17-2 2-5 4-7 6-6 8-10 12-16 13-4 1-7-1-14-3-5-2-11-5-19-5-11 0-20 5-25 11-12 14-10 35-8 59l2 8 22-2-1-9c-3-19-4-37 2-43 1-1 3-3 9-3 4 0 7 1 11 3 6 2 15 6 25 4 13-2 21-12 28-19 2-2 5-4 6-6 8-10 14-11 25-11 8 0 13 2 19 5 6 2 12 5 19 6 15 2 27-6 38-11 10-5 18-10 26-9 6 1 11 9 16 21 1 4 3 8 4 11 1 5 3 9 4 14 4 13 13 21 21 27 6 4 11 10 14 15l20-10c-5-8-12-15-19-21-6-6-12-11-15-18-2-4-3-9-4-13-1-4-3-9-4-14-8-19-19-31-32-33-1 0-4 0-6 0z"/>
<glyph unicode="&#57357;" d="M512 0l-512 0 0 512 512 0z m-491 21l470 0 0 470-470 0z m-6 144l482 0 0-21-482 0z m72-10l-21 0 0 160 78 129 137 0 0-22-124 0-70-114z m359 0l-21 0 0 153-70 114-124 0 0 22 137 0 78-129z m-190 123c-31 0-55 25-55 56 0 31 24 55 55 55 31 0 55-24 55-55 0-31-24-56-55-56z m0 90c-19 0-34-15-34-34 0-19 15-34 34-34 19 0 34 15 34 34 0 19-15 34-34 34z m119-224l-238 0 0 11c2 64 55 115 119 115 65 0 117-50 119-115z m-216 21l194 0c-7 47-48 84-97 84-48 0-90-37-97-84z"/>
<glyph unicode="&#57358;" d="M256 173c-100 0-181 66-181 148 0 6 1 12 2 17l2 12 357 0 0-11c0-3 0-5 0-8 0-4 1-7 1-10 0-82-81-148-181-148z m-159 156c-1-3-1-6-1-8 0-70 71-127 160-127 89 0 160 57 160 127 0 2 0 5 0 8z m25-322l-20 7 63 174 182 0 36-99-19-7-32 84-152 0z m259-7c-26 0-47 21-47 47 0 26 21 47 47 47 25 0 47-21 47-47 0-26-22-47-47-47z m0 73c-14 0-26-12-26-26 0-14 12-26 26-26 14 0 25 12 25 26 0 14-11 26-25 26z m-236 32l223 0 0-22-223 0z m169 354l21 0 0-92-21 0z m-69 42l22 0 0-134-22 0z m-68-42l21 0 0-92-21 0z"/>
<glyph unicode="&#57359;" d="M245 512l22 0 0-512-22 0z m11-119l-85 85 15 15 70-71 70 71 15-15z m70-374l-70 71-70-71-15 15 85 85 85-85z m-326 248l512 0 0-22-512 0z m478-96l-85 85 85 85 15-15-71-70 71-70z m-444 0l-15 15 71 70-71 70 15 15 85-85z m395 274l16-16-363-362-15 15z m45-93l-122 0 0 122 21 0 0-101 101 0z m-314-314l-21 0 0 101-101 0 0 21 122 0z m-77 407l362-363-15-15-363 362z m290-407l-21 0 0 122 122 0 0-21-101 0z m-213 314l-122 0 0 21 101 0 0 101 21 0z"/>
<glyph unicode="&#57360;" d="M122 160c-4 0-6 1-8 3-19 20-31 48-31 75-6-4-13-11-18-18-2-3-7-6-12-5-4 2-7 6-7 10-2 27 11 53 32 68-13 13-27 24-42 32-4 2-6 7-5 12 1 4 4 9 10 9 8 1 18 2 26 2 8 1 16 2 23 0 2 0 3-1 5-1 5 20 18 39 35 52 3 2 7 3 11 2 3-1 6-4 6-8 2-13 4-25 6-36 18 9 37 14 55 17 5 1 10-2 12-7 1-5-1-11-6-13-6-3-11-8-15-15 25 2 50-8 67-26 2-4 3-7 2-10-1-3-3-6-8-8-13-4-25-6-38-7 4-5 8-13 12-19 7-17 9-35 9-54 0-1 0-1 0-2 0-6-4-10-10-10-4 0-7 1-9 4-19 23-48 36-76 46-8-13-10-30-11-46l-4-36c0-5-3-8-7-10-2-1-3-1-4-1z m-27 107c2 0 5-1 7-2 4-3 5-7 4-10-4-18 0-37 8-53l1 7c2 20 4 43 18 60 0 0 1 1 1 1l4 3c1 1 2 1 3 2 5 3 12 1 14-1 21-7 46-17 66-33-1 6-3 14-6 19-6 15-17 26-29 30-6 2-9 8-8 13 1 5 7 8 12 8 15-2 30-2 45 2-15 8-34 9-50 3-6-2-11 0-13 4-2 4-1 11 2 14 1 1 2 4 3 7 1 2 1 4 2 6-10-5-21-9-31-14-3-2-7-2-10 0-4 2-6 5-6 9 0 9-1 19-2 28-9-13-16-28-16-43 0-5-4-9-9-9-6-1-10 2-12 7-1 2-3 5-7 5-1 0-1 0-2 0-3 1-6 1-10 0 10-9 21-19 29-29 3-2 4-7 3-10-1-3-4-6-6-7-10-6-19-14-24-24 5 3 11 7 18 9-1-2 0-2 1-2z m241 3c-3 0-5 1-7 3-20 20-31 48-31 75-7-5-13-11-19-18-2-4-7-6-11-5-5 1-8 6-8 10-2 27 11 53 32 68-13 13-26 24-41 32-6 2-8 8-7 12 1 4 5 8 10 8 2 0 5 2 7 2 7 1 14 2 21 1 7 1 15 2 22 0 2 0 3-1 5-1 6 20 18 39 36 52 3 2 6 3 10 2 3-1 7-4 7-9 2-12 4-24 5-35 18 9 37 14 55 17 6 1 10-2 12-7 1-6-1-11-5-13-7-3-12-9-15-15 24 2 49-8 66-27 2-3 3-6 2-9-1-3-3-7-7-8-13-4-26-6-39-7 5-5 9-13 12-19 7-17 10-36 10-54 0-1 0-1 0-2 0-6-5-10-11-10-3 0-6 1-9 4-19 23-48 36-75 46-9-13-11-30-12-46l-3-36c0-5-3-8-8-10-2-1-3-1-4-1z m-27 107c2 0 6-2 8-3 3-2 4-6 3-9-3-18 0-38 9-54l1 8c2 20 4 43 18 60 0 0 1 1 1 1l3 3c1 1 2 1 3 2 6 3 12 1 14-1 21-7 46-17 66-33-1 6-3 14-5 19-7 15-17 26-30 30-5 2-9 7-7 13 1 5 6 8 11 8 15-2 30-2 45 1-15 9-34 10-50 4-5-3-11 0-13 4-2 4-1 11 2 14 1 1 2 4 3 7 2 2 2 3 3 6-11-5-22-9-31-14-4-2-8-2-11 0-3 2-5 5-5 9 0 9-1 18-2 28-10-13-16-28-16-43 0-5-5-9-10-9-5-1-10 2-12 7-1 2-3 4-6 4-1 0-1 0-2 0-4 2-7 2-11 0 11-8 21-18 30-28 2-2 3-7 2-10-1-3-3-6-5-7-11-6-20-14-25-24 5 3 12 7 18 9-1-2 0-2 1-2z m-133-308c-1 0-2 0-3 1-6 3-9 8-7 14 33 98-23 174-23 175-3 4-3 12 2 15 4 3 12 3 15-2 2-3 64-84 28-194-3-5-8-9-12-9z m-79-69c-17 0-33 5-46 15-4 3-5 10-2 15 9 13 24 20 36 25 11 6 22 10 31 14 11 6 22 10 32 15l5 2c8 5 18 9 28 11 9 2 18 2 26 2 3 0 5 0 8 0 3 0 6 0 8 0 23-1 47-3 70-5 22-2 45-4 63-16 7-4 12-10 17-14 4-3 8-6 11-10 12-7 26-12 37-15 5-1 9-4 10-9 1-5-2-10-6-11-8-3-14-3-20-3-2 0-5 0-7 0-7 0-12 0-16-1-1 0-3-1-5-2-3-1-6-2-8-2-13-5-30-4-48 2-2 0-4 1-5 2-6 1-10 3-14 3-4 0-11-3-17-5-10-4-20-8-32-7-8 1-14 5-19 8-3 1-5 2-7 3-4 2-9 2-13 1-1-1-3-3-6-5-10-8-23-8-39 0-8 3-16 6-22 5l-8-5c-12-9-27-13-42-13z m-22 26c16-7 37-6 51 4l9 6c2 0 3 1 3 1 3 1 6 2 10 2 10 0 18-3 27-7 11-4 17-3 19-2 0 0 1 0 1 1 0 0 0 0 1 1 1 1 2 2 2 3 0 0 1 1 3 1 8 6 21 7 33 1 3-1 5-2 8-4 4-2 8-4 12-4 1 0 1 0 2 0 5 0 13 2 19 5 8 3 16 7 25 7 7 0 15-3 20-5 2-1 3-1 5-2 15-4 27-5 37-2 2 1 4 1 5 2 2 1 3 1 5 2-1 0-2 1-2 1-5 5-8 8-13 11-4 4-9 9-14 12-14 8-34 10-53 13-23 2-47 4-69 5-2 0-4 0-8 0-8 0-19 1-28-2-9-2-18-6-25-10l-4-2c-11-4-22-10-31-14-11-5-22-9-32-15-6-2-13-5-18-9z m251 43c-2 0-4 1-6 2-4 4-5 11-2 15 94 118 37 283 36 284-2 5 1 12 7 14 5 2 11-1 13-6 3-8 61-179-40-305-1-3-4-4-8-4z"/>
<glyph unicode="&#57361;" d="M267 0l-149 0 0 174-57-96-59 29 83 250 90 48 92-117z m-127 21l105 0 0 260-76 98-67-36-74-226 24-11 88 145z m254-21l-149 0 0 287 92 117 90-48 83-249-59-29-57 96z m-127 21l105 0 0 230 88-145 24 11-74 225-67 36-76-97z m62 352c-86 27-144 1-146 0l-8 20c3 1 66 28 160 0z m-67 21l-21 0 0 63 11 0c9 0 17 7 17 17 0 9-8 17-17 17-10 0-17-8-17-17l-22 0c0 21 17 38 39 38 21 0 38-17 38-38 0-17-12-32-28-38z"/>
<glyph unicode="&#57362;" d="M256 0c-141 0-256 115-256 256 0 141 115 256 256 256 141 0 256-115 256-256 0-141-115-256-256-256z m0 491c-129 0-235-106-235-235 0-129 106-235 235-235 129 0 235 106 235 235 0 129-106 235-235 235z m-158-393l128 188 188 128-128-188z m143 173l-62-92 92 62 62 92z m4 204l22 0 0-43-22 0z m0-395l22 0 0-43-22 0z m187 187l43 0 0-22-43 0z m-395 0l43 0 0-22-43 0z"/>
<glyph unicode="&#57363;" d="M501 0l-490 0c-7 0-11 4-11 11l0 490c0 7 4 11 11 11l490 0c7 0 11-4 11-11l0-490c0-7-4-11-11-11z m-480 21l470 0 0 470-470 0z m406-21l-342 0c-6 0-10 4-10 11l0 208c0 100 81 181 181 181 100 0 181-81 181-181l0-208c0-7-4-11-10-11z m-331 21l320 0 0 198c0 88-71 160-160 160-89 0-160-72-160-160z m210 27c-4 0-7 2-9 5-4 6-2 12 4 15 25 15 40 33 47 60 5 21 3 44-3 64-4-3-7-6-12-9-3-1-8 0-10 3-3 2-4 5-4 8 1 12 0 25-2 35 0 0 0 0-1-1-2-2-5-4-6-5 0 0 0-2-1-3-2-8-5-18-17-21-3 0-6 0-8 3-2 2-3 5-3 8 1 21-7 44-20 63-7 10-16 17-25 24 2-7 3-13 4-20 2-17-3-36-15-49-1-1-4-4-4-5 0-1 0-2 0-5l3-51c0-4-2-9-7-10-5-1-10 0-12 4-8 11-14 20-23 27-2 2-5 3-8 4 5-12 6-26 8-37l1-7c3-15 4-30 10-41 4-8 10-14 17-21l3-3c5-4 9-8 12-8 5-1 10-7 9-13-1-5-7-10-13-9-10 2-17 9-23 15l-3 3c-7 8-15 15-21 26-9 16-11 33-12 49l-2 7c-2 16-4 34-14 43-2 3-3 7-2 11 1 4 4 6 7 7 15 5 31 0 44-9 2-1 3-3 6-4l-2 18c0 4 0 7 2 12 2 6 6 10 8 13 8 8 11 21 9 33-1 12-6 25-14 37-2 3-3 8 0 11 2 4 7 6 11 5 25-6 47-21 64-43 10-14 18-29 21-44 1 1 2 2 3 3 1 1 2 3 3 4 2 2 4 4 4 5-1 5 3 11 8 12 5 1 11-1 13-7 4-10 6-21 8-32 1 1 3 1 4 2 5 1 9-1 11-5 18-30 24-66 15-100-7-32-27-56-58-73-2-4-3-4-5-4z"/>
<glyph unicode="&#57364;" d="M256-5l-9 9c-7 8-184 211-184 315 0 107 86 193 193 193 107 0 193-86 193-193 0-104-177-307-184-316z m0 496c-95 0-172-77-172-172 0-83 137-251 172-292 35 41 172 208 172 292 0 95-77 172-172 172z m0-301c-71 0-129 57-129 129 0 71 58 129 129 129 71 0 129-58 129-129 0-72-58-129-129-129z m0 237c-60 0-108-48-108-108 0-60 48-108 108-108 60 0 108 48 108 108 0 60-48 108-108 108z"/>
<glyph unicode="&#57365;" d="M467 81l-422 0c-26 0-45 19-45 45l0 260c0 26 19 45 45 45l422 0c26 0 45-19 45-45l0-260c0-26-19-45-45-45z m-422 329c-14 0-24-10-24-24l0-260c0-14 10-24 24-24l422 0c14 0 24 10 24 24l0 260c0 14-10 24-24 24z m95-150c-5-2-12-4-22-4-22 0-39 14-39 41 0 25 17 42 43 42 9 0 16-2 19-3l-2-9c-5 3-10 4-16 4-20 0-32-12-32-33 0-21 11-32 31-32 6 0 12 1 17 3z m26 23l-8-26-11 0 28 81 13 0 27-81-10 0-9 26z m27 8l-7 24c-3 5-4 9-5 15-1-5-2-10-4-15l-7-24z m33 46c5 1 13 2 20 2 11 0 19-2 24-6 4-3 6-10 6-15 0-11-6-18-15-20 7-3 10-8 12-16 2-12 4-20 6-23l-10 0c-1 2-3 10-6 19-2 11-6 15-16 16l-9 0 0-35-11 0 0 78z m11-37l10 0c11 0 19 6 19 15 0 10-8 15-19 15-5 0-8 0-10-1z m54 37c7 1 14 2 23 2 15 0 25-3 33-9 7-7 11-16 11-29 0-13-4-24-11-31-8-8-21-12-36-12-7 0-13 0-19 1l0 78z m11-71c2 0 6-1 11-1 22 0 34 12 34 34 0 19-11 31-33 31-6 0-10 0-12-1z m-46-80l171 0 0-22-171 0z"/>
<glyph unicode="&#57366;" d="M517 236l-522 0 114 276 293 0z m-490 21l458 0-97 234-264 0z m218-11l22 0 0-235-22 0z m-103-225l228 0 0-21-228 0z"/>
<glyph unicode="&#57367;" d="M256 0c-141 0-256 115-256 256 0 141 115 256 256 256 141 0 256-115 256-256 0-141-115-256-256-256z m0 491c-129 0-235-106-235-235 0-129 106-235 235-235 129 0 235 106 235 235 0 129-106 235-235 235z m0-381c-81 0-146 65-146 146 0 81 65 146 146 146 81 0 146-65 146-146 0-81-65-146-146-146z m0 271c-69 0-125-56-125-125 0-69 56-125 125-125 69 0 125 56 125 125 0 69-56 125-125 125z m-34 1l-20 5c17 71-30 90-32 90l7 20c0-1 66-28 45-115z m95-8l-15 16c53 51 24 93 24 93l17 12c2-1 40-59-26-121z m23-360c-1 0-66 27-45 115l21-5c-17-70 30-90 32-90z m-166 1c0 1-40 59 27 120l14-16c-53-49-25-90-24-92z m-138 149l-20 8c0 1 27 66 115 45l-5-21c-68 17-89-30-90-32z m88 134c-50 53-93 24-93 24l-12 17c1 0 59 40 121-26z m295-10c-9 0-21 1-33 4l5 21c71-18 90 29 90 32l20-8c-1 0-20-49-82-49z m36-129c-21 0-49 8-77 39l16 15c49-53 90-25 92-24l12-17c0-1-17-13-43-13z"/>
<glyph unicode="&#57368;" d="M165 0c-26 0-50 19-60 51l-100 310c-11 38 0 84 29 103 31 22 76 48 115 48 28 0 65-13 80-75l0-354c1-46-27-83-64-83z m-16 491c-26 0-64-16-103-44-20-14-30-50-20-80l99-309c7-23 22-37 39-37 24 0 44 28 44 61l0 351c-9 38-28 58-59 58z m-31-50l37-215-21-3-37 214z m229-441c-37 0-65 37-65 82l0 354c15 62 52 75 80 75 40 0 85-26 115-48 28-19 40-65 29-104l-100-309c-9-31-33-50-59-50z m-44 433l0-351c0-33 20-61 44-61 17 0 33 14 39 37l99 309c10 30 0 65-20 80-39 28-76 44-102 44-31 0-50-20-60-58z m91 8l21-4-37-214-21 3z m-282-358l-17 13c1 1 26 36 65 42 22 3 45-4 66-21l-13-17c-17 13-33 18-50 16-30-4-51-33-51-33z m288 0c0 0-21 29-51 33-17 2-33-3-50-16l-13 17c21 17 44 24 66 21 39-6 64-41 65-42z"/>
<glyph unicode="&#57369;" d="M161-5l-165 165 356 356 165-165z m-135 165l135-135 325 325-134 136z m118-33c0-9-8-17-17-17-9 0-17 8-17 17 0 9 8 17 17 17 9 0 17-8 17-17z m258 258c0-9-8-17-17-17-9 0-17 8-17 17 0 9 8 17 17 17 9 0 17-8 17-17z m-107-176l-10 11c-7-7-15-11-22-12l-4 10c7 1 14 4 20 10 8 8 9 17 3 24-6 5-14 5-25 1-15-7-27-9-36 1-9 8-10 21-1 33l-11 11 6 6 11-11c7 7 13 9 17 10l4-10c-3-1-10-3-17-9-8-9-6-16-2-21 6-5 12-4 26 2 15 6 27 6 36-4 9-8 11-22 1-35l11-11z m-32-39c-23 0-48 10-65 27-35 36-37 90-5 122 15 15 34 22 56 22 23 0 48-10 65-27 17-17 26-39 27-61 1-24-6-45-22-60-14-15-34-23-56-23z m-14 151c-16 0-30-5-41-16-23-23-21-65 5-92 14-14 32-21 50-21 16 0 30 5 41 16 12 12 17 27 16 44-1 17-9 34-21 47-14 14-32 22-50 22z"/>
<glyph unicode="&#57370;" d="M159 5c-90 0-159 116-159 214 0 97 63 162 158 162 79 0 159-50 159-162 0-101-67-214-158-214z m-1 354c-68 0-137-43-137-140 0-88 62-192 138-192 77 0 136 103 136 192 0 97-69 140-137 140z m196-228c-18 0-37 6-56 15l9 19c16-8 31-12 46-12 77 0 137 103 137 192 0 85-54 140-137 140-77 0-129-48-135-124l-22 2c8 87 70 144 158 144 95 0 158-65 158-162 0-101-67-214-158-214z m-226 88c-34 24-68 0-68 0l-13 17c16 11 56 26 94 0z m129 0c-34 24-68 0-68 0l-13 17c16 11 57 26 94 0z m156 123c-13 0-28 4-43 14l12 17c32-22 64 0 65 0l12-17c-1-1-21-14-46-14z m-121 0c-13 0-27 4-42 14l11 17c32-22 64 0 65 0l12-17c-1-1-20-14-46-14z m-135-250c-16 0-34 4-51 17l12 17c41-28 81-1 84 0l11-17c-3-1-26-17-56-17z m156 132l-12 17c2 1 54 37 106 0l-12-17c-40 28-81 1-82 0z"/>
<glyph unicode="&#57371;" d="M267 43l-267 0 0 469 267 0z m-246 21l224 0 0 427-224 0z m491-21l-267 0 0 469 267 0z m-245 21l224 0 0 427-224 0z m-203-20l21 0 0-44-21 0z m363 0l21 0 0-44-21 0z m-235 288l21 0 0-79-21 0z m106 0l21 0 0-79-21 0z"/>
<glyph unicode="&#57372;" d="M402 130c-62 0-110 84-110 191 0 107 48 191 110 191 62 0 110-84 110-191 0-107-48-191-110-191z m0 361c-48 0-88-78-88-170 0-92 40-170 88-170 48 0 89 78 89 170 0 92-41 170-89 170z m0-237c-23 0-41 29-41 67 0 38 18 67 41 67 24 0 42-29 42-67 0-38-18-67-42-67z m0 113c-8 0-20-18-20-46 0-28 12-46 20-46 9 0 20 18 20 46 0 28-11 46-20 46z m-32-367l-287 0-3 5c-181 304 0 502 1 504l4 3 313 0-19-18c-140-137-36-398 0-475 2-5 4-8 1-14l-5-5z m-274 21l258 0c-38 89-126 327-6 470l-254 0c-23-27-156-201 2-470z m117 368l50 0 0-21-50 0z m-74 0l50 0 0-21-50 0z m-74 0l49 0 0-21-49 0z m256-236l81 0 0-22-81 0z"/>
<glyph unicode="&#57373;" d="M495 186l-198 0-2 9c0 4-1 9-1 12 0 4 0 7-1 11-3 9-6 19-9 29-9 25-19 54-19 86 0 100 54 179 123 179 69 0 124-81 124-181 0-24-5-45-10-65-2-8-3-15-5-23-2-9-2-28-2-47z m-179 21l158 0c0 17 0 31 2 40 1 8 3 15 5 24 4 19 10 38 10 60 0 88-46 160-103 160-56 0-102-72-102-159 0-28 9-54 18-78 4-11 7-21 11-32l0-1c1-4 1-9 1-13 0 0 0 0 0-1z m79-207c-57 0-103 54-103 122 0 1 1 21 2 42l0 11 200 0 0-11c1-23 2-42 2-42 1-68-45-122-101-122z m-79 154c-1-19-2-33-2-33 0-54 37-100 81-100 43 0 81 46 81 101 0 0-1 13-2 32z m-86 32l-199 0 0 10c0 9-1 16-2 22-3 9-7 19-10 29-8 25-19 54-19 86 0 98 55 179 124 179 69 0 123-80 123-181 0-24-5-45-9-65-2-8-3-15-5-23-3-9-3-28-3-47z m-178 21l157 0c0 17 0 31 2 40 1 8 3 15 6 24 4 19 9 39 9 60 0 88-46 160-102 160-57 0-103-72-103-159 0-28 10-54 18-78 5-11 8-21 11-32l0-1c1-4 1-9 2-14z m79-207c-56 0-102 54-102 122 0 1 1 21 2 42l0 11 199 0 0-11c1-23 3-42 3-42 1-68-45-122-102-122z m-79 154c-1-19-2-33-2-33 0-54 37-100 81-100 44 0 81 46 81 101 0 0-1 13-2 32z"/>
<glyph unicode="&#57374;" d="M386 108c-59 0-129 24-195 71-117 83-172 208-123 280 48 67 171 62 287-13 6-3 7-10 3-15-3-5-9-6-15-3-104 67-217 74-258 18-42-62 11-174 119-250 107-77 230-89 273-29 38 56-1 154-92 231-4 4-5 11-1 15 4 4 11 5 15 1 101-84 142-193 96-258-24-32-62-48-109-48z m-66-46c-59 0-119 20-172 57-65 46-109 112-120 182-9 52 2 102 30 141 2 3 4 7 7 9 3 6 10 6 14 2 4-3 5-9 3-14-36-60 18-169 121-243 59-42 126-67 182-67 38 0 68 12 88 33 3 4 9 5 14 2 5-3 6-9 3-15l-7-9c-35-49-95-78-163-78z m-269 316c-5-23-6-47-2-73 11-64 51-126 112-168 49-35 106-54 159-54 39 0 75 10 103 29-11-2-24-4-38-4-61 0-132 25-195 71-80 57-131 134-139 199z m273-124c-1 0-3 0-4 1-5 2-7 8-5 14l89 198-180-134c-4-3-12-2-15 2-3 4-2 12 2 15l214 160c4 3 9 3 12 0 5-3 6-9 4-13l-107-237c-2-4-5-6-10-6z m-136-254l-177 0c-4 0-7 1-9 4-2 2-2 7-2 10l43 153c1 5 4 7 7 8 4 1 8 0 11-3l133-153c2-2 4-5 4-8 0-7-4-11-10-11z m-163 21l139 0-105 121z"/>
<glyph unicode="&#57375;" d="M236 135c-2 0-3 0-6 2l-32 18-37-5c-3 0-6 1-8 4-4 3-4 6-4 9l4 16c1 3 3 7 6 8l16 5 2 12-46-6c-3 0-6 1-8 4-2 2-4 6-2 9l3 17c1 3 3 7 6 8l57 25c11 33 36 55 37 55 2 2 5 3 9 2 3-1 6-3 7-5 1-2 14-29 12-64l42-46c3-2 4-7 4-10l-4-17c-1-3-3-6-5-7-3-2-6-2-10 0l-41 22-4-10 12-10c4-2 5-7 4-10l-4-16c-1-3-3-6-6-7-1-3-3-3-4-3z m-35 41c2 0 3 0 5-1l7-4c-2 2-3 5-2 8l7 32c1 3 3 7 6 8 3 1 6 1 10 0l36-20-37 40c-3 2-4 5-4 8 1 18-1 32-4 43-7-8-16-21-20-37-1-3-3-6-6-7l-50-23 41 4c3 0 6-1 8-3 3-2 4-6 3-10l-7-32c-1-3-3-6-6-7l10 1c1 0 3 0 3 0z m-31-166c-11 0-20 4-26 12l-31 37 4 6c11 19 8 45-8 64-12 14-27 21-44 21-6 0-12-1-17-3l-7-3-32 36c-6 8-9 16-9 26 0 7 4 15 10 20l312 269c15 11 35 7 45-5l31-37-4-6c-11-19-8-45 8-64 12-14 29-21 46-21 5 0 11 1 15 2l6 2 31-36c7-8 10-16 9-25 0-7-4-15-10-20l-309-269c-7-4-13-6-20-6z m-31 52l22-26c4-5 12-5 15-3l311 268c2 1 3 3 3 5 0 3-1 7-4 10l-22 25c-4-1-10-1-15-1-23 0-47 11-62 29-19 22-24 54-14 80l-22 26c-4 5-12 5-15 3l-311-269c-3-1-4-3-4-5 0-3 1-7 4-10l22-25c6 2 12 3 18 3 22 0 45-11 60-29 19-24 24-56 14-81z m220 176l-20 24 16 14 20-24z m-40 48l-20 24 16 14 20-24z m-42 49l-21 24 16 14 20-24z"/>
<glyph unicode="&#57376;" d="M501 0l-490 0c-7 0-11 4-11 11l0 289c0 3 1 6 4 8l64 53c5 4 12 3 15-2 3-4 3-11-1-14l-61-51 0-273 470 0 0 273-60 49c-4 4-5 11-1 15 3 5 11 6 15 1l64-52c2-2 4-5 4-8l0-288c-1-7-5-11-12-11z m-169 427c-2 0-5 1-7 2l-72 58-71-58c-4-4-11-3-15 1-4 4-3 12 2 15l76 64c5 3 10 3 14 0l79-64c4-3 5-11 1-15-1-2-4-3-7-3z m-321-427c-4 0-8 2-10 5-2 6-1 12 4 15l491 284c5 3 12 1 15-4 3-6 1-12-4-15l-491-284c-2-1-3-1-5-1z m490 0c-2 0-3 0-5 1l-491 284c-5 3-6 9-4 15 3 5 10 6 15 4l491-284c5-3 6-9 4-15-2-3-6-5-10-5z m-67 252c-6 0-11 4-11 10l0 164-334 0 0-164c0-6-5-10-11-10-7 0-11 4-11 10l0 174c0 7 4 11 11 11l356 0c7 0 11-4 11-11l0-174c0-6-4-10-11-10z m-62 100l-232 0c-7 0-11 4-11 11 0 6 4 10 11 10l232 0c7 0 11-4 11-10 0-7-4-11-11-11z m0-68l-232 0c-7 0-11 4-11 10 0 7 4 11 11 11l232 0c7 0 11-4 11-11 0-6-4-10-11-10z"/>
<glyph unicode="&#57377;" d="M428 349l-344 0 0 163 344 0z m-322 21l300 0 0 121-300 0z m406-304l-512 0 0 155 512 0z m-491 21l470 0 0 112-470 0z m-21-30l21 0 0-46-21 0z m491 0l21 0 0-46-21 0z m-260 57l-21 0 0 44-145 0 0-44-21 0 0 65 187 0z m222 0l-21 0 0 44-144 0 0-44-21 0 0 65 186 0z m-78 260l-21 0 0 67-196 0 0-67-21 0 0 88 238 0z m-289-11l20-8-60-148-20 8z m339 0l60-148-20-8-59 148z"/>
<glyph unicode="&#57378;" d="M463 480c10 0 17-7 17-17l0-414c0-10-7-17-17-17l-414 0c-10 0-17 7-17 17l0 414c0 10 7 17 17 17l414 0m0 21l-414 0c-21 0-38-17-38-38l0-414c0-21 17-38 38-38l414 0c21 0 38 17 38 38l0 414c0 21-17 38-38 38z m-207-424c-73 0-132 60-132 132 0 73 59 132 132 132 73 0 132-59 132-132 0-72-59-132-132-132z m0 243c-61 0-111-50-111-111 0-61 50-111 111-111 61 0 111 50 111 111 0 61-50 111-111 111z m81-111l-21 0c0 32-28 60-60 60l0 21c44 0 81-37 81-81z m-324 186l486 0 0-22-486 0z m63 57l49 0 0-21-49 0z m141 0l49 0 0-21-49 0z m85 0l49 0 0-21-49 0z m85 0l49 0 0-21-49 0z"/>
<glyph unicode="&#57379;" d="M73 51c-40 0-73 33-73 73 0 40 33 72 73 72 39 0 72-33 72-72 0-40-33-73-72-73z m0 124c-28 0-52-24-52-51 0-28 24-51 52-51 27 0 51 23 51 51 0 27-24 51-51 51z m366-124c-39 0-72 33-72 73 0 40 33 72 72 72 40 0 73-33 73-72 0-40-33-73-73-73z m0 124c-27 0-51-24-51-51 0-28 24-51 51-51 28 0 52 23 52 51 0 27-24 51-52 51z m-9-54l-100 286c0 2-7 25-58 32l3 22c61-9 74-42 75-48l99-286z m-128 230l-4 21c19 5 32 11 35 18 3 7-1 14-1 14l18 12c4-6 8-19 3-33-7-16-24-27-51-32z m33-238l-262 0 0 21 245 0c16 54 73 107 76 109l15-16c-2-1-61-57-72-106z m-179 9c-24 91-95 87-96 86l-2 21c1 0 90 6 117-103z"/>
</font>
</defs>
</svg>
